<?xml version="1.0" standalone="no"?>
<!DOCTYPE svg PUBLIC "-//W3C//DTD SVG 1.1//EN" "http://www.w3.org/Graphics/SVG/1.1/DTD/svg11.dtd" >
<svg xmlns="http://www.w3.org/2000/svg" xmlns:xlink="http://www.w3.org/1999/xlink" version="1.1">
<metadata>
Created by FontForge 20170731 at Fri Oct  9 16:43:19 2020
 By Aleksey,,,
Copyright (c) 2019 by Fontsmith Ltd. All rights reserved. This font may not be altered in any way without prior permission of Fontsmith Ltd.
</metadata>
<defs>
<font id="UpaHandwriting-Regular" horiz-adv-x="0" >
  <font-face 
    font-family="Upa Handwriting"
    font-weight="400"
    font-stretch="normal"
    units-per-em="2048"
    panose-1="3 7 6 2 4 6 2 2 2 4"
    ascent="1638"
    descent="-410"
    x-height="1348"
    cap-height="1505"
    bbox="-2017 -1559 2039.12 2032.47"
    underline-thickness="102"
    underline-position="-347"
    unicode-range="U+000D-F8FF"
  />
<missing-glyph horiz-adv-x="1423" 
d="M205 6v1419h1014v-1419h-1014zM713 807l344 518h-690zM307 199l344 518l-344 516v-1034zM1118 199v1034l-346 -516zM367 109h690l-344 516z" />
    <glyph glyph-name=".notdef" horiz-adv-x="1423" 
d="M205 6v1419h1014v-1419h-1014zM713 807l344 518h-690zM307 199l344 518l-344 516v-1034zM1118 199v1034l-346 -516zM367 109h690l-344 516z" />
    <glyph glyph-name=".null" 
 />
    <glyph glyph-name="nonmarkingreturn" horiz-adv-x="682" 
 />
    <glyph glyph-name="CR" unicode="&#xd;" horiz-adv-x="491" 
 />
    <glyph glyph-name="space" unicode=" " horiz-adv-x="491" 
 />
    <glyph glyph-name="exclam" unicode="!" horiz-adv-x="677" 
d="M276 260q-26 -13 -60 15t-34 63q4 204 21 313q58 443 125 844q3 20 59 299q8 38 34 45.5t60 -20.5q120 -92 68 -236q-116 -348 -127 -385q-8 -30 -13 -65.5t-10 -81t-8 -68.5l-10 -25l-14 -30l-5 37l-6 -11q-2 -18 -18 -123l14 -6l6 -16l9 22l10 29q1 -5 2 -15.5t2 -15.5
q-6 -65 -17.5 -197t-17.5 -196q-1 -11 -2.5 -31t-3.5 -35.5t-6 -29.5q-19 -60 -58 -80zM326 510q1 3 5 11t5 11q1 12 10.5 105t13.5 143v17l-14 -19q-12 -176 -20 -268zM209 -201q-40 8 -66.5 25.5t-29.5 42.5q-6 92 35.5 151.5t107.5 61.5q29 1 53.5 -22t30.5 -54
q15 -92 -35 -168q-36 -52 -96 -37z" />
    <glyph glyph-name="quotedbl" unicode="&#x22;" horiz-adv-x="897" 
d="M223 981q-4 7 -12.5 12t-14 8.5t-3.5 6.5q-33 49 -33 108q-8 86 -6 129q-1 21 0.5 74t-0.5 74q3 35 18 125q-1 15 22 28t53.5 19.5t53.5 3.5q6 -2 20.5 -1.5t20.5 -0.5q76 -6 57 -90q-2 -15 -5 -56.5t-5 -56.5q3 -1 -4 -10.5t-14 -14.5l-21 52l-4 -13q2 -4 7.5 -15.5
t7.5 -17t5 -15t2.5 -17t-3.5 -15.5v-18q0 -46 -15 -61q4 -21 -6.5 -59t-9.5 -52q-1 -12 -3.5 -23t-9 -26.5t-9 -21t-13.5 -25t-12 -21.5l-21 -4zM616 997q-14 3 -23 11.5t-7 15.5q-31 47 -31 102q-7 65 -4 121q-1 23 0 69.5t0 69.5q0 10 6 52q9 58 10 65q-1 14 20.5 29
t51 24t49.5 7q6 -2 19.5 -1.5t19.5 -0.5q72 -12 55 -97q-1 -6 -2.5 -18t-2.5 -21t-2.5 -18.5t-4.5 -15.5t-6 -7q-8 -20 -4.5 -35t0.5 -20l-10 -33v-16q0 -44 -15 -57q4 -20 -6.5 -56t-9.5 -49q-1 -11 -3.5 -22t-8 -24t-9 -20.5t-11.5 -23t-11 -20.5l-33 6z" />
    <glyph glyph-name="numbersign" unicode="#" horiz-adv-x="1779" 
d="M997 -137q-9 8 -30.5 27t-32.5 30.5t-26 30t-21.5 37.5t-7.5 41q0 66 16 202q4 40 13.5 112.5t11.5 86.5q1 3 -4.5 8.5t-8.5 5.5q-129 -3 -266 -12q-6 0 -12 -9t-6 -17l-48 -357q-1 -8 -7.5 -21.5t-8.5 -19.5l-43 35q-6 6 -26 29.5t-33 33.5q-37 34 -46 61t3 73
q6 22 32 161q2 3 -6 11t-12 8q-31 1 -93 2t-93 2l-13 6l15 4q102 14 133 17l-2 6q-55 0 -68 -4q-91 -19 -201 28q-7 2 -19.5 13.5t-16.5 13.5q3 2 9 7.5t10 8.5t9 4q31 5 94.5 16.5t113 19t95.5 11.5q48 3 71 22.5t26 64.5q4 34 18.5 102t18.5 90q0 4 -19 4
q-104 -2 -311 -10q-26 -1 -40 18.5t-5 44.5q6 11 0 17q-26 55 20 64q9 2 31 3h6q246 14 324 15q21 0 30.5 7.5t14.5 26.5q43 151 80 261q11 25 43 32q11 2 35.5 1t37.5 1q8 5 12.5 1.5t5 -4t1 -7.5t0.5 -10q0 -4 6 -12.5t6 -12.5q1 -7 5 -23.5t5 -23t2.5 -23t-0.5 -22.5
q-2 -16 -7 -32t-12.5 -35.5t-10.5 -30.5q-23 -58 -39 -98h18q94 -2 283 -2q5 0 11 6t9 14q96 289 125 371q3 9 8.5 18.5t9 15.5t12.5 18t11 15t14 17.5t13 15.5q13 16 33 19.5t35.5 -0.5t39.5 -13q10 -4 14.5 -29t2.5 -47q-13 -65 -41 -184t-39 -170l-8 -18q-3 -8 -7.5 -23
t-7.5 -22q32 -9 47 -11q40 -4 119 -11t119 -11l6 -8l10 -9q9 -3 30.5 -3.5t33.5 -4.5l8 -14q-17 -4 -11.5 -25.5t-8.5 -31.5q-18 -10 -42 -14.5t-37.5 -5t-47 0t-39.5 0.5q-202 -6 -203 -6q-5 0 -10.5 -5t-5.5 -11q-17 -55 -62 -215q-7 -20 -0.5 -26.5t27.5 -8.5
q150 -11 250 -25q2 0 10 -1t11 -1.5t10.5 -2t10 -3.5t8 -5t7.5 -7.5t4 -10t2 -13.5t-2 -17q-2 -10 3 -33t5 -31q-2 -6 -13 -11.5t-20 -4.5q-6 0 -321 12q-27 1 -33.5 -12.5t2.5 -36.5l-12 -102q-10 -61 -28 -174t-25 -156q-2 -7 -15.5 -17t-15.5 -12q-14 -23 -16 -35
q0 -32 -12.5 -39.5t-37.5 13.5zM690 1120q4 -6 10 11q6 14 15 57q8 35 10 37l-12 -2zM670 598q19 -1 41 -1t49 0.5t41 0.5q88 0 131 2q16 0 24 16q10 36 28 107.5t28 107.5q1 4 3.5 18t5 20t10.5 12.5t22 5.5l-6 12q-20 -1 -89 -1.5t-102 -2.5l-2 -6l51 -2q-12 -6 -37 -6
q-19 -2 -56 -4.5t-56 -4.5q-60 -8 -64 -49q-6 -35 -20.5 -103.5t-20.5 -103.5q-1 -3 6.5 -10.5t12.5 -7.5zM1067 51h6q5 32 16.5 99.5t16.5 103.5l16 76h-10l-14 -76q-6 -33 -15.5 -100.5t-15.5 -102.5z" />
    <glyph glyph-name="percent" unicode="%" horiz-adv-x="1718" 
d="M193 -190q-35 19 -44 49.5t13 64.5q82 125 254 371q294 430 448 641q62 85 131 174.5t165 211.5t134 171l21 16l-10 -22q-52 -93 -103 -176h12q10 13 35 46t38.5 51t33 47t33.5 54q52 85 157 41q22 -9 36 -21.5t19.5 -28.5t7.5 -29t3.5 -32.5t3.5 -31.5q-1 -61 -26 -101
t-70 -81q-138 -91 -234 -166q-22 -18 -43 -38t-53.5 -55.5t-40.5 -43.5l-22 -23l-35 -43l-23 -33q-19 -27 -56.5 -76t-66.5 -90t-53 -79q-41 -67 -164 -274t-194 -318q-50 -81 -158 -174q-58 -52 -149 -2zM297 717q-95 0 -157.5 80t-43.5 174q48 249 297 440q42 33 94 49
q2 4 16 2t18 -2.5t19 -4.5t19 -5q32 -8 119 -35q64 -19 82 -98q5 -21 6.5 -41.5t-3 -44.5t-6.5 -37.5t-13 -42t-14 -36t-18 -41t-16 -36.5h-6q-1 -4 -10 -22q-15 -19 -43 -57t-51 -67t-47 -52q-44 -39 -72 -60.5t-75 -42t-95 -20.5zM426 932q59 22 106.5 93.5t47.5 141.5
q0 21 -13 88q-6 29 -8 29l-37 -6q-9 -8 -18 -18.5t-20 -25.5t-15 -20q-2 -1 -7.5 -2t-8.5 -2l-33 -18q-2 -2 -5.5 -6.5t-5.5 -5.5t-5 -1.5t-7 3.5l-28 -15v29q-66 -88 -58 -190q5 -51 36.5 -72t78.5 -2zM1020 901q4 3 12.5 9t14.5 11.5t10 10.5q127 170 252 309
q-3 -2 -10.5 -3.5t-8.5 -2.5q-142 -161 -270 -334zM1096 1139l59 55l-25 -4q-3 -5 -15 -17q-29 -32 -19 -34zM911 889q33 48 47 65v7q4 7 16.5 22t19.5 26t3 15q-16 -21 -45.5 -62.5t-44.5 -62.5q-7 -10 4 -10zM1147 -98q-109 -39 -172.5 3.5t-75.5 166.5q-14 149 90 348
q58 111 176 280q31 45 76 65.5t111 25.5q59 4 96 -17t68 -65q64 -92 36 -232q-44 -211 -186 -397l-16 -12q7 10 13.5 34.5t8.5 30.5q11 28 32 63.5t32 63.5l4 27l6 22q2 10 9 33t9 33.5t0 27.5q-15 -53 -26 -86q-11 -31 -54 -116q0 -11 -14 -20t-20 -19l10 -8l-19 -64
q-34 -51 -54.5 -78t-59 -61t-80.5 -49zM1194 141q213 210 180 490q-1 9 -10 27.5t-10 21.5q-36 -22 -43 -35q-93 -151 -123 -215q-54 -117 -70 -172v-51l6 -43q9 -43 23.5 -48t46.5 25zM680 397h20l82 146q-16 -5 -16 -6q-17 -26 -48.5 -78.5t-37.5 -61.5zM1114 121v12
l-18 66l-6 -11q2 -7 6.5 -27t7.5 -32q2 -4 10 -8z" />
    <glyph glyph-name="ampersand" unicode="&#x26;" horiz-adv-x="1458" 
d="M135 -131q-40 50 -49.5 113t2.5 120q10 61 29.5 120.5t52.5 123t57 104.5t68 111q6 10 23.5 34t25.5 38l2 33q-106 248 -80 458q26 187 162 297q18 15 40.5 27.5t37.5 19.5t46.5 16t41 11.5t49 11t43.5 9.5q156 34 270 -19q98 -46 115 -148.5t-61 -177.5
q-141 -136 -332 -327q-2 -2 -12 -9t-14 -12t-2 -15.5t16 -23.5q15 -14 28.5 -54t16.5 -46q19 -39 63 -106q1 -2 11.5 -1.5t13.5 3.5q39 51 115.5 155.5t115.5 155.5q32 43 68 72q3 3 17.5 -2t17.5 -11q4 -10 9 -13t9 -0.5t9.5 6.5t8.5 5l29 6l-14 -28l16 -2l-14 -35
q14 14 38.5 39t45 45.5t39.5 38.5q3 3 15 6t15 4l-18 -23l-43 -43l-8 -16q-35 -41 -105 -127l4 -12l-63 -72v-8q87 93 88 94l197 197q4 5 14 11t12 7q-41 -41 -59 -61q-203 -230 -260 -303q-62 -79 -162 -248q-6 -9 -4.5 -29t10.5 -27q63 -63 229 -212q66 -58 99 -89l-41 5
l-99 49l-4 -6q6 -4 19.5 -11.5t19.5 -11.5l9 -35q-4 0 -18 -1.5t-21 -0.5q-21 2 -58.5 10t-42.5 9l8 -15l-67 19q-157 55 -230 121q-3 3 -12 3t-10 -3q-16 -18 -42 -51.5t-32 -41.5l-18 -30q-14 -20 -37.5 -58.5t-36.5 -58.5l-20 -25q-68 -45 -80 -55q-38 -28 -97 -45.5
t-124.5 -9.5t-100.5 51zM639 975q157 194 227 285q42 50 2 90q-47 12 -67 14q-4 1 -16 3.5t-18 2.5t-14.5 -1t-14.5 -6.5t-11 -16.5q-5 -12 -16.5 -36.5t-16.5 -37.5q-75 -160 -67 -289zM336 -2q21 -9 43.5 3t36.5 30q31 38 63 79t74 96.5t61 80.5q3 3 1 10t-5 10
q-77 94 -139 164l-25 31l-16 -10q-8 -13 -22.5 -34.5t-26 -40t-19.5 -34.5q-47 -91 -66.5 -171.5t-2.5 -164.5q4 -20 43 -49z" />
    <glyph glyph-name="quotesingle" unicode="'" horiz-adv-x="516" 
d="M223 981q3 3 -5.5 8t-17.5 10.5t-7 8.5q-33 49 -33 108q-8 86 -6 129q-1 21 0.5 74t-0.5 74q3 35 18 125q-1 15 22 28t53.5 19.5t53.5 3.5q6 -2 20.5 -1.5t20.5 -0.5q76 -6 57 -90q-2 -15 -5 -56.5t-5 -56.5q3 -1 -4 -10.5t-14 -14.5l-21 52l-4 -13q2 -4 7.5 -15.5
t7.5 -17t5 -15t2.5 -17t-3.5 -15.5v-18q0 -46 -15 -61q4 -21 -6.5 -59t-9.5 -52q-1 -12 -3.5 -23t-9 -26.5t-9 -21t-13.5 -25t-12 -21.5l-21 -4z" />
    <glyph glyph-name="parenleft" unicode="(" horiz-adv-x="866" 
d="M813 1663q-25 -6 -41 2l45 18l4 -4zM483 -342q-16 5 -41.5 25t-29.5 22q-86 79 -137 182.5t-91 243.5q-8 27 -14 60.5t-9 57.5t-7.5 63.5t-6.5 58.5q-1 2 5 20l6 -20q6 -32 19.5 -113.5t21.5 -124.5l8 -20v22q-4 41 -14 124.5t-15.5 148.5t-3.5 124q7 364 109 594
q3 7 10 21.5t10 21.5q37 92 96 174t146 181v4l24 20l158 103l33 4q-2 -2 -16.5 -21.5t-32.5 -25.5q-6 -7 -14.5 -21.5t-10.5 -17.5l16 8l23 8q8 5 90 66q-1 -4 -3 -15t-5 -14l-123 -145q-207 -247 -256 -648q-25 -201 -31 -380q-5 -186 66 -424l2 -21v-14l6 -15
q44 -111 55 -151l35 -90q14 -55 -6 -70q-10 -10 -32.5 -11.5t-39.5 5.5zM160 410l-6 14v121q1 13 -2.5 38.5t-2 44.5t14.5 29l-2 -233zM274 180q9 -7 9 9q0 26 -29 139l-6 -4q17 -100 26 -144z" />
    <glyph glyph-name="parenright" unicode=")" horiz-adv-x="948" 
d="M-23 -336l-18 2l14 17q9 5 74 41t96 59q200 134 322 416q106 247 121 493q8 170 10 248l-4 18q0 -1 -3.5 -7t-7 -22t-3.5 -42q0 -60 -13 -193q-3 -43 -21 -120.5t-22 -104.5h-4q2 25 17 174t20 229q7 112 -14 193q-7 27 -22 91.5t-25 99t-28 85.5t-43 92.5t-58 77.5
q-6 8 -14.5 15.5t-22 17t-17.5 12.5l-4 11q7 8 21.5 27t26 29.5t24.5 14.5q48 16 102 -14q93 -58 151.5 -147t104.5 -213q105 -281 45 -660q-22 -142 -51 -254t-80 -215l-14 -22l6 30q-11 -22 -16 -37v-6q-13 -19 -43 -65.5t-53.5 -79.5t-49.5 -59q-26 -27 -56.5 -52.5
t-77 -59.5t-62.5 -46l-11 -8q-31 -16 -81 -19.5t-62 -7.5q-12 -5 -47 -10l41 20q6 4 58 39t79 55l31 33l-12 -4q-20 -12 -103 -62.5t-127 -76.5q-16 -10 -74 -33z" />
    <glyph glyph-name="asterisk" unicode="*" horiz-adv-x="1255" 
d="M674 604q-10 15 -10 19q-13 91 -54 354q-4 20 -4 31q-5 -5 -20 -25q-7 -12 -21.5 -35.5t-23 -38t-17 -37.5t-10.5 -45l-6 -10q-4 3 -8 4t-7 -0.5t-5.5 -3.5t-6 -7t-5.5 -9t-5.5 -10.5t-5.5 -10.5l-14 -12l-2 10q0 5 4.5 18.5t2.5 20.5t-16 8q-6 0 -13.5 -8t-18 -23.5
t-13.5 -19.5q-5 -5 -9.5 -15.5t-6.5 -13.5q-4 4 -13.5 11t-15 13t-6.5 11q-4 34 7.5 72t22.5 57t38 62q13 22 102 157l-4 9l-82 -37v-6q-20 -7 -48.5 -18.5t-41.5 -16.5l-12 -4q-16 -7 -99 -47l-6 2l6 10l13 10l-21 4q-19 0 -55 -4q3 8 6 24.5t6.5 28t9.5 15.5q31 21 117 47
q42 15 118 38t95 29q-13 6 -44 27.5t-40 30.5q-134 108 -164 131q-22 20 -27.5 45t5.5 45q8 16 31 28t47 15q4 1 9 -1t10.5 -6.5t10 -9t10.5 -11t9 -9.5q61 -52 186 -164l16 -10l5 20l6 334q0 1 6 19l6 -19l12 -137h2q-4 108 0 160q0 17 35 37q3 2 33 -8l8 -9q4 -2 20.5 -5
t23.5 -11t3 -27q-1 -3 -6 -71q-1 -17 -5 -53.5t-5 -55.5q-12 -105 -21 -207l2 -10l9 4q57 80 211 291l6 16q6 5 18.5 17.5t22 19.5t18.5 8q15 2 42.5 -11.5t31.5 -14.5q42 -13 10 -49q-106 -132 -197 -242l-6 -14h17q14 3 225 47q8 2 19 -1.5t14 -7.5q4 -6 6 -14t3.5 -18
t2.5 -15l-29 -6q-20 -4 -70 -11.5t-77 -14.5q-9 -2 -26 -14t-19 -13q-3 -2 -15 -0.5t-16 0.5q-25 -8 -90 -35q-2 0 -2.5 -7t0.5 -9q33 -35 99.5 -103.5t99.5 -103.5q10 -13 10 -33q0 -8 -4 -26t-4 -27q1 -24 -12 -34.5t-35 -2.5q-7 2 -27.5 5t-28.5 7q-39 27 -80 68
q-18 18 -49 53.5t-43 48.5q-1 2 -6 6t-6 5v-17q13 -151 33 -336q1 -15 -5.5 -23t-19 -14t-16.5 -10l-15 -16l-6 -12l-12 14l-4 -10zM926 1450q3 6 14.5 15t18 17t2.5 15l-39 -43q-34 -40 -33 -41.5t37 37.5zM932 819q-1 3 -3.5 6t-2.5 4q0 7 4 11l6 -6z" />
    <glyph glyph-name="comma" unicode="," horiz-adv-x="653" 
d="M168 -344l-8 8l-2 5q-3 5 -6 -1v8h-13l-12 9l-6 12q-2 0 -2 4l-4 8l-2 2l-11 23l7 20l16 6l16 13l15 6l18 28l59 56q8 13 23 33t20 30q16 16 27 41l8 13q-30 -8 -53 2q-16 8 -29 8l-3 2l-9 4.5t-10.5 7t-12 11.5t-12.5 16l-12 16l-12 19l-6 22l-2 12q-8 17 -3 35l3 12
l-7 9v26q8 31 15 43l6 15v2l4 4l18 14v12l-6 -12l-4 2q0 2 3.5 9.5t4.5 7.5l9 10q6 3 12 12l16 10q21 14 41 17l37 4l6 4h17l30 -6l2 -6q24 -5 40.5 -16.5t37.5 -39.5l10 -18q2 -5 6 -14.5t6.5 -15t4.5 -14.5t2 -18q0 -6 4 -18l2 -27l-4 -67q-1 -6 -12 -45q1 -15 -9.5 -37.5
t-11.5 -28.5q-2 -13 -15 -35.5t-16 -31.5q-7 -21 -18 -29q-2 -4 -8 -13.5t-13 -19t-8 -10.5q-4 -2 -14 -27q-13 -9 -35 -35q-26 -24 -47.5 -47t-30.5 -30q-1 -1 -15.5 -11t-19.5 -20q-1 -1 -5 2t-5 2q-2 -4 -3.5 -5t-4.5 0t-4 1z" />
    <glyph glyph-name="hyphen" unicode="-" horiz-adv-x="1085" 
d="M158 551l-6 8l8 16l28 15l-30 -4q-15 -3 -30 19.5t-15 49.5q3 64 43 70q36 5 119.5 8t136.5 12q10 0 43 1.5t65.5 1.5t59.5 -3q29 -4 111.5 1t109.5 -9q16 -5 47.5 -6t51 -7t24.5 -24q1 -1 9 -23.5t9 -23.5l-14 -6l-35 -4q5 -3 19.5 -5t19.5 -5l4 -15h-12q-6 1 -6 -3
q0 -3 5 -12q7 -18 -1 -19q-21 0 -29 -11q-6 -5 -25.5 -5.5t-42.5 1.5t-24 2q-54 1 -161.5 -4.5t-154.5 -5.5q-12 0 -109.5 4t-109.5 -2q-21 -1 -61.5 -6t-46.5 -6zM268 582l51 8l15 4l-12 10q-13 0 -40.5 -3t-41.5 -3l-2 -4zM399 588l13 16l-58 -4q-8 -5 6 -7q14 -1 15 -1z
" />
    <glyph glyph-name="period" unicode="." horiz-adv-x="628" 
d="M266 -94l-2 26l-16 -24q-19 -17 -60.5 -8.5t-52.5 30.5q-45 90 -26.5 168t98.5 140q35 27 75.5 29t79.5 -11q4 -1 15.5 -4.5t16 -5t13 -5.5t13 -8.5t8.5 -12t6 -17.5v-6l15 -19l4 29q3 -3 8 -14.5t4 -16.5q-8 -81 -21 -127q-3 -11 -10 -22t-18.5 -24.5t-16.5 -20.5
l-24 -13l2 17q-24 -28 -37 -41q-20 -14 -68 -39h-6z" />
    <glyph glyph-name="slash" unicode="/" horiz-adv-x="966" 
d="M862 1513l2 -18q-12 -45 -31 -136t-32 -136q-69 -242 -121 -408q-96 -298 -219 -668q-24 -72 -73 -207t-58 -159q-1 -4 -6.5 -12t-6.5 -11l-12 -8q1 2 2 7t2 7l-10 -12l-2 10q-14 -7 -21 -14l-8 19q-4 -3 -19 -2.5t-16 10.5q-2 0 -32 6l-11 -6l-6 8q-4 4 -12 4l-6 -2
q-15 15 -29 22l-8 3q0 1 1 3t1 3v4h-14q0 2 0.5 5t1.5 8.5t2 12.5q-2 -2 -6 -9.5t-7 -11t-6 0.5q1 3 3 8.5t3 10t1 8.5q6 21 43 172.5t61 228.5q22 75 70.5 209t64.5 182q97 295 168 498q97 255 195 420q3 3 7.5 10t6.5 10q16 16 16 -6h11l-7 -23v-22q1 0 9 -0.5t12.5 3
t5.5 13.5v8l6 13l4 -15q5 -14 4 -16q0 -5 -3 -16.5t-3 -16.5h4q6 11 9 25q0 9 10 29q3 3 10.5 7.5t11.5 8.5q0 -1 1 -3t1 -3q-8 -32 -12 -72l35 43q3 -15 12 -27z" />
    <glyph glyph-name="zero" unicode="0" horiz-adv-x="1093" 
d="M352 -127l-22 25q-17 -4 -32.5 -1t-31.5 19q-14 15 -46 35.5t-44 30.5q-69 57 -88 188q-1 4 -8.5 53.5t-9 58.5t-8 52.5t-8 59t-5.5 52.5t-5 59.5t-2 53t-1 57.5q7 410 223 670q117 140 264 174q70 16 174 -26h-2q32 -8 41 -15l54 -28l18 -5l35 -24q52 -41 108 -148
q44 -85 63.5 -185t17 -190t-8.5 -192q-3 -35 -13 -73t-25.5 -83t-22.5 -71q-25 -67 -54 -113q-6 -9 -39.5 -65.5t-56.5 -81.5q-25 -29 -71.5 -72t-55.5 -53l-14 -12q-92 -46 -113 -53t-98 -17l61 -31l2 -8q-68 -7 -94 33l-16 6q2 -9 -2.5 -9.5t-11.5 4t-13.5 7t-8.5 -1.5
t3 -21q3 -7 0.5 -15.5t-10 -22.5t-8.5 -17zM375 158q28 5 108 32q3 2 8 6.5t9 7.5t8 5q124 62 180 153q154 250 148 562q-3 131 -78 241q-30 45 -75 58.5t-87 -13.5q-21 -16 -44.5 -37.5t-38.5 -36t-44 -44t-39 -39.5q-8 -8 -17.5 -31t-11.5 -27l-32 -65q-35 -68 -43 -94
q-71 -201 -47 -375q15 -109 45 -223l16 -37q4 -5 12 -16.5t13.5 -19t9.5 -7.5zM893 623q37 92 43 192l-6 2q-3 -41 -29 -154zM670 57l67 64l13 22l-82 -75q2 -7 2 -11zM432 47q21 0 31 4q-9 2 -18.5 6t-13 5t-8.5 0t-11 -7zM465 -119q-6 5 -27 11.5t-28 11.5l9 6q8 5 9 6z
" />
    <glyph glyph-name="one" unicode="1" horiz-adv-x="905" 
d="M49 -205q0 8 2 10l27 13l10 14q-1 3 -6 3.5t-8 -1.5q-11 -3 -36 -13t-40 -14q-4 -1 -12.5 4.5t-8.5 8.5q-2 10 -7.5 32.5t-8 35.5t-2.5 30t6 29q18 45 103 88q25 14 55 26t68 25t57 20q16 11 16 19q-9 214 62 577q9 48 33.5 134.5t29.5 107.5l17 64l6 36l-31 -20
q-39 -34 -107.5 -97t-91.5 -83q-6 -5 -23 -7t-20 -3l11 36l63 72l-6 6l-72 -55l-26 -6v28q2 28 16.5 50t42 47t37.5 37l-66 -48l-22 -6l10 21l375 350q12 13 73 74q71 68 162 51q59 -12 80 -43q10 -13 -6 -78q-21 -59 -71 -195.5t-84.5 -238t-61.5 -197.5q-29 -104 -63 -309
t-39 -231q-3 -17 1 -23.5t23 -3.5q57 10 293 49q15 3 18.5 -1t1.5 -21q0 -3 -3.5 -18.5t-3 -21.5t3 -16.5t13 -15t27.5 -4.5l8 -8q-5 -5 -14.5 -17t-17.5 -20t-17 -12q-54 -19 -157 -52.5t-167 -55.5t-151 -57t-157 -71q-17 -8 -34.5 -13.5t-48.5 -13t-36 -8.5h-25z
M309 1110l31 27q-2 4 -10.5 0t-15.5 -12.5t-5 -14.5zM500 43q32 10 106 32t113 34v16l-74 12l-29 -12q4 -9 7 -10l45 -6l-6 -9q-29 -10 -84 -26t-78 -23v-8zM600 12q80 21 88 23l-4 10q-40 -8 -82 -25z" />
    <glyph glyph-name="two" unicode="2" horiz-adv-x="1118" 
d="M39 -63q-3 0 -9 5t-7 9q-55 125 22 213q446 505 522 592q7 8 30.5 34.5t32 36.5t29 35t30 38t26 36.5t26 41.5t20.5 40.5t19 44.5q21 70 0 108q-39 69 -137 58l-49 -10l-6 -9q7 -13 5 -15t-10.5 -1t-9.5 0l-135 -92l11 -4q6 3 15 8t15.5 9.5t14.5 8.5t11.5 4.5t6.5 -2.5
l-55 -39q-127 -98 -154 -301q-1 -7 -5 -49t-11 -63q-2 -8 -9 -14.5t-21.5 -14t-18.5 -10.5l-27 -21q-17 11 -18 15q-5 17 -13 49.5t-10 40.5q-7 -11 -7.5 -14.5t-0.5 -34.5l-21 2q-33 0 -48.5 20t-12.5 45q36 224 135.5 383.5t284.5 247.5q149 71 272 35q134 -36 176 -57
q62 -32 90 -111t15 -158q-7 -43 -23 -82t-42.5 -74.5t-48 -60.5t-57 -62t-53.5 -57q-79 -90 -230 -247t-196 -205l-20 -29l25 2l22 4q286 41 578 -2l36 -12q-3 -4 -9.5 -14.5t-10.5 -14.5q-6 -5 -17 -16.5t-20 -20t-18 -12.5t-20.5 -6t-26.5 -3.5t-23 -2.5l8 -10
q-6 -5 -13 -17t-16 -21t-24 -12q-67 -11 -176 -13.5t-204.5 -11.5t-170.5 -38q-36 -14 -101.5 -44t-95.5 -42q-19 -8 -67 -16zM862 741l-2 15l10 12l29 18z" />
    <glyph glyph-name="three" unicode="3" horiz-adv-x="1134" 
d="M279 -143q-29 -3 -76.5 12.5t-91 48.5t-50.5 70q-2 9 -15.5 26t-16.5 25q-12 30 -9 67q10 97 111 191q12 12 27.5 14.5t23 1t28.5 -10t23 -9.5q2 -2 0 -16.5t-6 -22.5q-17 -32 -24.5 -54t-6 -52t18.5 -58q30 -44 66 -59t86 0q327 92 419 438q19 74 19 123q0 79 -51 131.5
t-129 54.5q-112 4 -185 -16q-18 -4 -38.5 -13t-33.5 -16.5t-37 -22t-34 -20.5l-6 -12l-35 -23q1 10 -5 24t-5 26t18 26q-5 1 -15.5 -7t-21.5 -8t-22 19q-30 53 18 101q83 89 240 248t199 202q19 16 28 35q-15 -8 -42 -19.5t-50.5 -21.5t-45.5 -20t-33.5 -18.5t-8.5 -14.5
l65 26v-6q-105 -57 -241 -98q-114 -38 -215 10q-55 23 -62 92q0 5 4.5 10.5t12.5 4.5q22 -18 45.5 -25t53.5 -2t44.5 9.5t50.5 17.5q51 19 330 137q37 15 121 52t131 56q73 28 96 31q21 1 29.5 0t29.5 -5t29 -5l2 -14q4 -1 14 -1.5t18 -1.5t13 -4t9.5 -15t1.5 -15
q-51 -55 -130.5 -133.5t-109.5 -104.5l-141 -127q-91 -84 -105 -100l-20 -25l30 2q22 -2 62.5 -4t73 -5t59.5 -9q144 -35 213 -172q2 -4 8.5 -13.5t9.5 -13.5l5 15q43 -64 32 -183q-11 -104 -59 -217q-32 -70 -74 -147l-27 -41q-25 -37 -32 -45q-6 -5 -47.5 -49.5
t-69.5 -65.5q-26 -17 -57.5 -33.5t-70.5 -35t-60 -29.5l-13 -6q3 -15 3 -22.5t-7.5 -11t-13.5 -4t-15 -0.5t-12 -1q-131 -39 -235 -9l6 -30q-12 -4 -16 -4zM940 203l-2 10l41 59q54 90 70 144l14 16l-2 -20q-52 -123 -70 -150q-17 -27 -51 -59zM133 -121q-25 11 -55 37l6 6
l57 -39z" />
    <glyph glyph-name="four" unicode="4" horiz-adv-x="1200" 
d="M616 -375q-29 -6 -56.5 14t-33.5 54q-14 95 -14 207q0 24 7 72.5t7 74.5q1 9 -10 31.5t-10 32.5q4 100 16 280q1 13 5 36t5 34q-39 -13 -63 -27q-14 -6 -105 -51t-139 -66q-38 -17 -106 -10q-30 1 -55 29t-35 63q-2 6 -1.5 24t-5.5 29.5t-24 16.5q-4 1 -7 13t-1 18
q3 12 9.5 40t10.5 43.5t11.5 38t15.5 40.5q108 264 192 432q73 137 246 432q2 3 10.5 9.5t10.5 8.5q2 -7 2.5 -8.5t-4.5 -11.5t-5 -11l-8 -34q12 6 30.5 27t29.5 28l16 -2v-21q-3 -8 -33 -57q1 -3 5 -12t6 -16t0 -11q-7 -19 -74 -188l-12 -39q-10 -26 -95 -273l6 -2l33 60
l15 12l-2 -16q-80 -186 -93 -219q-4 -8 -14 -50l49 15q213 75 268 90q15 4 23.5 12t11 15t6.5 22q131 334 150 379q17 43 39.5 91t49.5 105t42 89q13 31 46.5 35t70.5 -19q36 -22 71 -33q56 -13 25 -51q-9 -10 -8.5 -19.5t16.5 -17.5l-2 -16q-6 -5 -16 -18.5t-15 -18.5
q-8 -10 -22 -21q-3 -2 -9 -5t-9.5 -6t-4.5 -7q-36 -79 -99.5 -230t-92.5 -217l10 -8q54 10 94 15q76 8 119 10l18 -4l-12 -15q-109 -21 -119 -24q-13 -3 -34 -15.5t-29 -15.5l-10 -2l-8 19q-35 -20 -44 -29l-6 -27l25 8q6 1 37 4t47 7q22 2 63 10t54 10l18 2q0 -9 -19 -16
t-22 -12l119 8q-8 -34 -21 -76q-4 -7 -14.5 -18t-11.5 -13l16 -4l-82.5 -30t-93.5 -33q-18 -7 -52.5 -17.5t-49.5 -15.5l-29 -31l-16 19q-2 -2 -8 -7t-9.5 -7.5t-7.5 -7t-6.5 -8.5t-3.5 -9q-8 -31 -31.5 -115.5t-35 -128t-27.5 -111.5t-27 -125q-12 -58 -13.5 -134.5
t1.5 -137.5q-2 -48 -10 -58q-11 -16 -46 -12q-6 0 -14 -9t-8 -15q0 -9 2.5 -16.5t10 -11.5t20.5 9l8 -12q-5 -37 -15 -39zM518 709l86 24l-4 10q-17 -5 -80 -28z" />
    <glyph glyph-name="five" unicode="5" horiz-adv-x="1132" 
d="M299 -90q-173 51 -248 182q-29 49 -30 111t14 114q0 6 10 11l8 -13q4 -34 8 -94h9l2 74q0 4 4 7t10.5 6.5t9.5 6.5l8 19q3 6 8.5 13t10.5 11.5t6 3.5q37 -18 41 -34q14 -85 81.5 -162t149.5 -100q37 -9 67 1.5t67 36.5q116 77 186 177q30 43 54.5 91.5t17.5 63.5
q-3 -6 -10.5 -20.5t-12.5 -24t-11 -21t-10.5 -17t-7.5 -5.5q5 11 13.5 37.5t13.5 38.5q20 44 23.5 79.5t-6 60.5t-33 46t-50.5 34.5t-65 27.5q-121 43 -307 0l-2 -15q93 17 166 9l4 -11q-80 -14 -146 -39q-27 -11 -74 -38.5t-65 -36.5q-43 -22 -66 22l-32 -4l-19 10
q-8 -10 -28 -22q-1 3 -10 19.5t-11 25.5q-2 8 -2 24t-2 23q-7 31 5 49.5t40 36.5l18 27q43 254 177 548q6 14 18.5 47t20.5 50q0 1 14 10l4 -14l6 -25l23 27l-2 12q3 2 12 9t15.5 10.5t11.5 3.5q24 1 39.5 -12t29.5 -38q10 -14 37 -14q315 38 397 49q33 5 69 13t79.5 18.5
t68.5 15.5q6 0 13.5 -2t7.5 -4q10 -26 2 -31q-17 -17 -48 -52.5t-57 -60.5t-53 -42q-196 -123 -499 -133q-9 0 -20.5 -6t-14.5 -13q-49 -103 -99 -223l-10 -27l29 9q100 24 186.5 25.5t178 -27.5t171.5 -93q116 -93 141.5 -235.5t-50.5 -255.5q-16 -23 -48 -65t-41 -56
q-21 -27 -43 -43q-24 -15 -74 -47.5t-89.5 -56.5t-77.5 -41q-20 -8 -45 -9.5t-62.5 0.5t-50.5 2l-4 -8q90 -20 233 23l121 71l17 11l-9 -19q-12 -10 -34 -26t-38.5 -29t-31.5 -27l-12 -14q9 0 33 16q13 9 33 19.5t34 19.5q8 8 45 31l21 12l-17 -24q-22 -13 -65 -39.5
t-77 -46t-67 -35.5q-53 -26 -118.5 -30.5t-116.5 4t-121 26.5zM516 1182l23 6l-29 6l-27 -6z" />
    <glyph glyph-name="six" unicode="6" horiz-adv-x="1040" 
d="M514 -233q-32 -14 -77 -5t-68 35q-1 1 -15 8q-216 15 -293 220l-8 12q-21 48 -24 57q-17 62 -17 88q-9 199 62 539q59 287 245 575q163 256 445 344q37 12 172 31q5 0 13.5 -7t8.5 -13q2 -10 -12 -37l-14 -6l4 -11l14 -4l-6 -24q-18 -14 -25 -25t-4 -18t13 -10
q-14 -32 -27 -35q-241 -57 -379 -246q-22 -31 -43 -65.5t-49 -83t-39 -66.5q-9 -15 -47 -90l-4 -27q-19 -44 -21 -51l84 86q3 3 7 5t9.5 4t8.5 3l6 -12l19 -4l28 20q79 35 146 25v-12q74 -8 102 -17q10 -3 21 -8.5t24 -14t21 -12.5l12 -12q8 -10 34 -31t40 -36
q42 -49 88 -136q5 -12 8.5 -25.5t7 -34.5t4.5 -28l-6 -18q-3 10 -11.5 40t-15 48t-12.5 23q-4 -11 12.5 -58t16.5 -76q-6 -312 -201 -587q-111 -156 -258 -217zM520 37q70 75 148 219q107 191 51 385q-15 51 -53 91t-76 46q-107 16 -188 -52.5t-111 -164.5
q-10 -32 -16.5 -72.5t-9 -71t-5 -79t-4.5 -72.5q-3 0 -2 -49l2 -49q4 -12 10.5 -35.5t12.5 -41.5t14 -34q31 -64 102.5 -71t124.5 51z" />
    <glyph glyph-name="seven" unicode="7" horiz-adv-x="1126" 
d="M299 -209q-4 5 -13.5 13.5t-15.5 16t-8 13.5q-2 15 -2 31t1 35.5t1 29.5l-8 2l-4 -65l-6 -23q-20 10 -25 17q-39 50 -39 153l-14 -4v15l6 122h-10q-2 -14 -8 -51t-9 -57l-8 -19l-16 13q-4 27 -4 78q1 13 1.5 41t3 48t9.5 36q6 14 32.5 73.5t36 80.5t33 71t38 79t36 69.5
t41.5 74.5q51 85 109.5 175t139 209t116.5 173l30 59l-63 -24q-266 -89 -334 -107q-149 -42 -250 54q-6 6 -12 15t-12.5 20.5t-10.5 17.5l15 10l-35 80l14 6q34 -30 71.5 -46.5t77 -19t72 0.5t74.5 12q332 75 592 213q51 26 127 -4.5t96 -85.5q7 -31 -12 -58
q-108 -163 -215 -311q-47 -64 -135 -172l-19 -14l41 63l-22 -10q-23 -34 -72 -100.5t-72 -100.5q-89 -147 -118 -204q-44 -91 -129 -295q-10 -38 -31.5 -106.5t-28.5 -92.5q-37 -181 -47 -236z" />
    <glyph glyph-name="eight" unicode="8" horiz-adv-x="1126" 
d="M315 -242q-18 6 -60 10t-62 11q-51 17 -97 67q-72 75 -76 211q-2 74 21 153t65 126l-30 -19q-17 -23 -19 -26q-8 10 11 43t41 55q32 35 64 68.5t86 86.5t67 66q12 12 -2 25q-99 87 -101 90l-16 14q-112 106 -98 275q9 118 104 266q58 94 193 170q8 5 36 25t45 30l-6 8
l-102 -18l-6 10q161 121 407 68q147 -36 238 -143q76 -91 86 -197.5t-49 -206.5q-130 -225 -254 -340q-16 -15 -47 -40.5t-43 -35.5q-9 -9 2 -22q63 -57 107 -128t65 -151t2 -166.5t-82 -162.5q-116 -144 -232 -207q-110 -62 -258 -15zM907 1430q8 8 -18.5 27.5t-38.5 19.5
l16 -19zM555 725q102 85 171.5 159t115.5 163q13 25 19.5 41.5t13 40t4 47t-12.5 47.5v8q15 -5 18 -4t-1 11t-4 11l-5 37l37 -37l21 -22q-25 64 -114 128.5t-156 65.5q-7 0 -17 3t-10 6q-3 22 -13.5 30t-31 9t-27.5 4l-53 -11q-6 -2 -18 -10l18 -6q68 -27 76 -86
q5 -45 -43 -78q-79 -54 -123 -106q-83 -94 -62 -201q16 -70 59.5 -128t112.5 -120q14 -13 25 -2zM461 -100q208 114 205 333q-25 151 -142 240q-4 3 -14 2.5t-16 -4.5q-168 -102 -244 -244q-16 -31 -25.5 -54t-18.5 -55t-7.5 -58t8.5 -62v-27q-5 -19 -2 -22
q44 -56 109.5 -72t146.5 23zM291 -184l20 12l-12 14q-50 24 -86 39h-14l4 -12q64 -40 88 -53z" />
    <glyph glyph-name="nine" unicode="9" horiz-adv-x="1042" 
d="M172 -311q-4 -1 -12 5t-10 11l6 37l14 6q8 4 33 19l-35 -7l-14 2l6 27q1 8 6.5 23.5t5.5 17.5q-2 18 -2 28t10 17t17.5 9.5t21 5.5t19.5 6q214 82 315 254q19 31 35 62t40.5 83t30.5 65q4 8 17.5 36t19.5 44q6 20 25 92l-10 3q-42 -53 -82 -82q-2 -1 -14 -6.5t-18.5 -8
t-17.5 -6t-21 -4.5t-19 0q-11 0 -35 -4q-9 -1 -38 -7t-44 -7q-70 0 -103 8q-13 2 -35.5 15t-31.5 16l24 12q-37 1 -56 12.5t-40 38.5l-57 59l-23 29l-10 18q-4 12 -14.5 38.5t-17 47t-9.5 39.5q-22 206 35 390q83 262 235 403q74 64 150 84q15 4 33 0t44.5 -15t37.5 -14
l12 -4q219 0 311 -201l11 -10q27 -53 30 -63q19 -50 23 -80q43 -463 -92 -858q-85 -251 -199 -393q-140 -173 -324 -246q-27 -10 -54.5 -17.5t-73.5 -17.5t-56 -12zM463 598q53 1 99 23t78.5 57.5t54 76.5t32.5 85q8 32 12 64.5t6.5 81t2.5 54.5q-5 30 -11 100t-16.5 113
t-34.5 82q-28 45 -81.5 61.5t-98.5 -7.5q-49 -25 -79.5 -66t-61.5 -104q-32 -64 -52 -119t-32.5 -118t-6.5 -127t31 -128q21 -53 67 -91.5t91 -37.5zM76 606q-55 52 -62 156l9 -2l43 -129q10 -18 10 -25zM426 391l-2 6q5 1 19.5 5t23.5 6t12 0q-31 -17 -53 -17z" />
    <glyph glyph-name="colon" unicode=":" horiz-adv-x="661" 
d="M319 678q-71 2 -115.5 54t-17.5 120q13 30 23 68q8 18 18.5 30.5t28 20t27.5 11t34 7.5t31 6q57 15 108 -21t60 -95q20 -181 -197 -201zM246 98q-21 -16 -58.5 -6t-48.5 33q-28 56 -26 106.5t24 89t64 70.5q23 16 39 25.5t38.5 18t45.5 7t45 -13.5q9 -4 16.5 -13.5
t16 -23t12.5 -18.5l16 -29l2 29q4 -8 5.5 -16.5t1.5 -12.5t-1.5 -14.5t-1.5 -12.5q-4 -68 -12 -92q-3 -10 -9.5 -20.5t-17 -24t-14.5 -18.5h-4l-10 -8h-7l-34 -41l-47 -15h-15v19z" />
    <glyph glyph-name="semicolon" unicode=";" horiz-adv-x="661" 
d="M319 678q-71 2 -115.5 54t-17.5 120q13 30 23 68q8 18 18.5 30.5t28 20t27.5 11t34 7.5t31 6q57 15 108 -21t60 -95q20 -181 -197 -201zM176 -256l-8 8l-2 5q-3 5 -6 -1v8h-13l-12 9q-8 14 -8 16l-6 10l-10 23l6 20l16 6l17 13l14 6l18 29l60 55q8 13 23 33t20 30
q15 15 26 41l8 13q-30 -8 -53 2q-16 8 -28 8l-4 2q-3 2 -8 4.5t-11 7t-12.5 11.5t-12.5 16l-12 16l-12 19l-6 22l-2 12q-8 16 -2 35l2 13l-6 8v26q8 34 14 43l6 15v2l4 4l19 14v12l-7 -12l-4 2q0 2 4 9.5t5 7.5l8 10q6 3 12 12l16 10q21 14 41 17l37 4l6 4h17l30 -6l2 -6
q24 -5 40.5 -16.5t37.5 -39.5l11 -18q18 -45 18 -62q0 -6 4 -18l2 -27l-4 -67q-1 -6 -12 -45q1 -15 -9.5 -37.5t-11.5 -28.5q-2 -13 -14.5 -36t-15.5 -31q-7 -20 -19 -29q-2 -4 -8 -13.5t-13 -19t-8 -10.5q-4 -2 -14 -27q-15 -11 -35 -34q-26 -24 -47.5 -47.5t-30.5 -30.5
l-15 -11q-14 -10 -19 -20q-1 -1 -5.5 2t-5.5 2q-2 -4 -3.5 -5t-4.5 0t-4 1z" />
    <glyph glyph-name="less" unicode="&#x3c;" horiz-adv-x="1024" 
d="M721 168q-18 13 -51 39q-2 0 -11.5 5t-24.5 17.5t-24 28.5q-79 63 -112 92q-130 117 -242 215q-9 8 -20.5 16t-27 18t-22.5 15q-5 4 -14 25q-5 10 -11 31t-11 30q-9 12 -4.5 22t8.5 13.5t14 9.5q23 15 134.5 82.5t168.5 106.5q31 21 90 66.5t90 66.5q48 26 123 37l25 -6
v-25q3 -1 9.5 -2t10.5 -2l8 -18l-10 -11h12l9 -24q-6 -12 -9 -15q0 -8 2 -10q2 1 9.5 1t11.5 1l4 -8q-2 -2 -10 -14l14 -10q-2 -4 -4.5 -12.5t-5 -14t-6.5 -8.5q-45 -53 -150.5 -129t-169.5 -103q-19 -4 -43 -24v-6q57 -44 166 -130.5t162 -127.5q14 -8 20 -21
q8 -10 5.5 -16.5t-5 -8t-11 -4t-11.5 -4.5t-10 -10.5t-13 -11.5q-4 -4 -9.5 -5t-6.5 -1q-2 -26 -0.5 -39t0.5 -27q0 -28 -12 -47q-3 -6 -8.5 -13t-14.5 -16.5t-12 -13.5zM592 754l26 20v6l-26 -20v-6zM637 246q7 0 15 2t12 2q-3 3 -14 11t-17 15l-8 -8z" />
    <glyph glyph-name="greater" unicode="&#x3e;" horiz-adv-x="1024" 
d="M250 209l-25 6v25q-3 1 -9.5 2t-10.5 2l-8 18l10 10h-12l-9 25q5 10 9 14q0 9 -2 11q-2 -1 -9.5 -1.5t-11.5 -1.5l-4 9q2 2 10 14l-14 10q2 4 4.5 12.5t5 14t6.5 8.5q45 53 150.5 128.5t169.5 102.5q18 4 43 25v6q-57 44 -166 130.5t-162 127.5q-14 8 -20 21
q-8 10 -5.5 16.5t5 8t11 4t11.5 4.5t10 10.5t13 11.5q4 4 9.5 5t6.5 1q2 26 0.5 39t-0.5 27q0 28 12 47q3 6 8.5 13t14.5 16.5t12 13.5q18 -13 51 -39q2 0 11.5 -5t24.5 -17.5t24 -28.5q79 -63 112 -92q130 -117 242 -215q6 -6 70 -50q6 -4 14 -24q5 -10 11 -31.5t11 -30.5
q9 -12 4.5 -22t-8.5 -13.5t-14 -9.5q-29 -18 -137.5 -84t-165.5 -104q-31 -21 -90 -66.5t-90 -66.5q-48 -26 -123 -37zM391 1036l8 8l-12 23q-7 0 -15 -2t-12 -2q3 -3 14 -11.5t17 -15.5zM406 532l26 21v6l-26 -20v-7z" />
    <glyph glyph-name="question" unicode="?" horiz-adv-x="1148" 
d="M379 270l-19 6q-5 -9 -8 -11t-6 2t-10 18q-38 80 2 172q5 11 34.5 86t53.5 108q36 49 75.5 97.5t101 120t79.5 92.5q10 13 37 45t40.5 49.5t33 45.5t32.5 55.5t21 57.5q19 65 -26.5 136.5t-125.5 107.5q-37 16 -71.5 16t-57.5 -8.5t-55 -27.5q-191 -109 -238 -371
q-2 -26 -1 -40.5t4 -43t4 -43.5l-11 -20l-12 -19q-3 -6 -6 -17.5t-7 -19.5t-10 -12q-13 -5 -21 0.5t-14.5 21t-9.5 19.5l-6 29l-4 2l-14 -13l-16 12t-18.5 15.5t-6.5 11.5q-13 112 -8 152q59 387 372 512q116 46 226 28q10 -2 35 -5t38 -5.5t32.5 -9.5t35.5 -18l12 -11
q-4 -22 22.5 -46t29.5 -31l26 -15l-24 27q-1 2 -4.5 5.5t-5 5.5t-1.5 5.5t4 7.5q11 -13 31 -34t35 -39t25 -35q72 -126 45 -244q-5 2 -5 11v10h-8q-26 -78 -45 -125h2q-14 -14 -59 -64q-9 -10 -121.5 -131t-169.5 -184q-14 -16 -27.5 -36t-30 -44.5t-26.5 -38.5l-12 -23h4
q27 30 41 52l8 -11q-59 -100 -98 -184q-10 -21 -17.5 -45t-15.5 -58.5t-12 -47.5q-8 -24 -32 -27.5t-46 16.5zM924 977l41 57l14 23q4 1 20 24l11 19l6 20q9 19 12 19l6 6q3 10 4.5 26t3.5 23q1 -2 4.5 -2.5t7.5 0.5h3q-19 -70 -27 -86q-33 -62 -74 -121q-3 -4 -15 -4.5
t-17 -3.5zM971 1116q7 13 20 49h-10l-12 -41l-2 -4zM877 948l6 10l20 29l12 10q1 -6 0 -8t-5 -8t-5 -8l-16 -17zM848 879l-4 8q53 53 82 80q14 0 -12 -29q-3 -4 -5 -6q-9 -10 -31 -27.5t-30 -25.5zM621 719q77 85 153 168l55 61h-6q-21 -22 -69 -67t-80.5 -82t-57.5 -78z
M410 -197q-9 11 -15 15l-10 22q-44 -38 -53 -33q-22 13 -42 33.5t-26 38.5q-33 113 62 197q13 10 35.5 12t58 -1t47.5 -3q6 0 15.5 -9.5t11.5 -17.5q28 -115 -31 -213l-12 -10q-4 -8 -11.5 -7.5t-11.5 -8.5z" />
    <glyph glyph-name="A" unicode="A" horiz-adv-x="1140" 
d="M844 -360q-4 5 -17.5 19t-19.5 22q-28 35 -48 73t-35.5 88.5t-22.5 78t-20 93.5t-17 84q-15 80 -35.5 229t-28.5 199q0 3 -5 8t-7 5q-230 -112 -301 -144q-21 -9 -34.5 -26t-18 -31t-9.5 -39t-8 -35q-14 -41 -34.5 -117t-30.5 -108q-12 -45 -58 -33q-114 36 -65 146
q8 19 14.5 41t14 51.5t10.5 40.5l6 20l-68 -16q-1 4 -3 13.5t-3 17t0 14.5q1 26 14.5 41.5t40.5 30t37 22.5q4 3 12.5 10t13.5 11.5t10.5 11t8.5 12.5q24 54 133 303t170 381q47 100 140 234q9 14 21.5 28.5t22 24t26 25.5t24.5 24q4 5 21 5t22 1q80 35 149 -41
q34 -35 43 -78.5t4 -103.5q-14 -161 -34 -500l2 -18q44 17 127 57q18 6 36 6q50 -3 99 -18q5 -1 12 -7.5t8 -7.5l-18 -12q-24 -10 -33 -8q-8 1 -12 2t-6 -2.5t-2.5 -5t-1 -7t-0.5 -7.5l-5 -21l-10 -6l-47 6q-5 -16 -8 -16q-19 -8 -117 -43q-3 -1 -23.5 -9t-29.5 -14
q-16 -12 -16 -31q2 -48 14 -151h-6l-19 145l-6 21l-4 -21q29 -226 35 -278q3 -28 17 -168.5t20 -214.5q0 -1 2 -8t2 -11.5t-4.5 -8.5t-16.5 1l21 -33l-31 -4l6 -41l17 -41l-25 -6l21 -6v-10l-11 -45h-32l26 -21l4 -18l-16 -2v2zM717 1194l8 2q2 8 4 23t4 22l-8 12
q-8 -6 -8 -59zM293 526q14 0 20 2q237 99 262 111q6 1 11.5 10t5.5 17v125q4 258 8 393q0 14 -12 -6q-188 -322 -291 -631q-4 -6 -4 -21zM717 813q4 8 4 10q2 49 5 151t5 152l-4 29q-1 -3 -8.5 -12t-7.5 -15q-8 -190 6 -305v-10zM811 733l4 12q-1 33 -2 98.5t-2 98.5h-4
q-2 -51 -2 -156q0 -6 1 -20t1 -21zM879 559q-1 3 -5 11t-4 12q0 3 -0.5 8.5t-0.5 9.5t0.5 8.5t2.5 7t5 2.5l8 -26zM870 416l-6 20l6 72l11 -51v-21q0 -9 -11 -20z" />
    <glyph glyph-name="B" unicode="B" horiz-adv-x="1302" 
d="M659 -170q-30 4 -90.5 15.5t-91.5 15.5q-40 6 -111.5 12.5t-95.5 9.5q-10 0 -26 4l-17 13q-6 6 -34.5 18t-42.5 21q-28 16 -119 84v12q10 4 30 4q5 0 1 9q-2 4 -5 5q3 1 12.5 5t13 5t11.5 0q32 -4 90 -14t82 -14q336 -53 570 57q81 39 109.5 121t-7.5 166q-13 16 -29 29
l-37 53l-90 55q-2 0 -125 29q-154 27 -340 -2l-22 -11q42 2 266 7q6 0 6 -5.5t-6 -5.5q-225 -15 -266 -20q-6 0 -14.5 -9t-8.5 -16q-5 -63 -4.5 -174t-1.5 -172q-1 -5 -4.5 -16t-3.5 -17q-8 20 -8 33q-1 25 -8.5 75.5t-8.5 76.5h-2q-2 -26 -1.5 -72t-0.5 -72q-1 -5 -2 -13.5
t-2 -12.5q-18 -2 -18 4q-2 5 -4 15.5t-2 11.5q-1 3 -4.5 11t-3.5 13q-4 -17 -7 -20q-2 -8 -10 -29q0 1 -2 11.5t-4 15.5l-6 20q0 -3 -2 -9t-2 -9q1 -13 -1 -27t-1 -25q-1 -2 -1.5 -5t-1 -5t-1.5 -2q-3 0 -9.5 -0.5t-11 -1t-10 0.5t-8.5 3q-41 27 -55 57t-11 80
q11 182 29 313t59 255q31 92 137 360l113 68l68 32q-124 -8 -246 -108q-18 -15 -47 -31q-4 -2 -21 -2q5 21 9 25q1 3 -2.5 4t-11 2t-16 2t-19 6t-19.5 12q-43 28 -10 64q141 137 284 186q65 25 97 90q23 46 93.5 53.5t110.5 -32.5q29 -24 54 -21q218 -15 344 -80
q99 -53 138.5 -135.5t20.5 -170t-86 -167.5q-35 -42 -85.5 -80.5t-84.5 -58t-102 -55.5q-9 -6 -18 -15l22 -8q96 -27 164 -63t117 -99q155 -199 45 -421q-11 -22 -27 -44.5t-36.5 -49.5t-30.5 -42q-15 -12 -45.5 -28t-45.5 -27q-5 -4 -12 -7t-12 -4.5t-6 -2.5
q-13 -4 -53.5 -20t-75.5 -29t-45 -15q21 -11 45 -6q21 7 59.5 20t69 23.5t59.5 22.5l27 10q-14 -19 -21 -23q-38 -32 -94.5 -53.5t-88.5 -28.5t-108 -20q-41 -6 -86 0zM340 694q120 24 210 58.5t163 97.5q4 4 24.5 22t27 24t24.5 22.5t26 24t24 23t25 25.5t22 23.5
t23.5 26.5t20.5 26q37 50 34.5 90t-42.5 60q-61 33 -172 55q-77 17 -107 -2q-44 -31 -69 -50t-59.5 -51.5t-57.5 -64.5q-36 -48 -64 -116.5t-38.5 -108t-28.5 -119.5q-6 -53 -4.5 -61t18.5 -5z" />
    <glyph glyph-name="C" unicode="C" horiz-adv-x="995" 
d="M393 -96q-177 -3 -280 170q-43 76 -63 162.5t-19 167t8 171.5q44 441 397 842q106 126 234 111q56 -7 116 -71.5t82 -129.5q41 -131 -37 -221q-36 -40 -79 -66q-4 -3 -16 4t-15 15q-11 27 -31.5 85.5t-32.5 88.5q-2 2 -12.5 3.5t-11.5 0.5q-26 -47 -84 -146.5
t-100 -176.5t-76 -150q-98 -209 -78 -492q8 -90 48 -136.5t132 -45.5q111 -3 213 107q43 45 81.5 107t59.5 107t54 124l30 73q2 6 15 15q1 -3 8 -12.5t8 -14.5q3 -244 -153 -451q-163 -233 -398 -241zM307 817q33 76 103 195q18 29 53 90.5t41 71.5q-20 13 -35 6
q-155 -247 -162 -363z" />
    <glyph glyph-name="D" unicode="D" horiz-adv-x="1157" 
d="M510 -31q-2 -2 -25 4q8 12 17 21q22 18 69 54t83 66t65 60q21 22 43 51.5t36 50t39 59.5t35 54q9 15 24.5 44t18.5 34q-83 -108 -143 -180q-129 -164 -295 -242q-24 -12 -52.5 -23.5t-63 -24t-54.5 -20.5q-106 -42 -223 64q-32 29 -44 67.5t-10 71t13 78.5q4 19 23 52
t24 48q9 27 23 134q37 292 125 565l2 16q-2 -1 -7.5 -2t-7.5 -2l-143 -82q-2 -2 -14 -8q-4 12 -2 16q42 70 61 95l-41 -25q-15 -10 -16 -10q-9 5 -9 16q0 5 5 45q3 7 10.5 34.5t15.5 39.5q124 169 299 233q4 0 29 15q30 20 61 26q188 37 338 -41q3 0 35.5 -22t75 -56
t63.5 -59q158 -175 142 -446q-17 -325 -160 -523q-158 -218 -348 -307q-51 -25 -117 -41zM954 803q3 9 9 24t9 27t3 25q2 90 -16.5 157t-75.5 119h-11q51 -71 67.5 -156.5t14.5 -195.5zM303 221q37 7 64 21q88 43 159 111.5t138 164.5q109 157 116 293q-3 16 -7 44.5t-8 52
t-9 44.5q-26 106 -105.5 157t-181.5 26q-16 -4 -20 -17q-8 -26 -31.5 -92.5t-32.5 -101.5q-44 -174 -55 -269q-14 -107 -31 -374q-1 -13 4 -60zM215 260q1 -3 11 -1t10 5q0 24 -3.5 70t-3.5 55h9l2 129q-7 -20 -11.5 -40.5t-8.5 -45t-6 -40t-5 -46t-4 -41.5q-2 -16 10 -45z
" />
    <glyph glyph-name="E" unicode="E" horiz-adv-x="1163" 
d="M291 -92q-13 0 -25.5 1.5t-27 5t-24.5 5.5t-27 7.5t-24.5 8l-27 9t-24.5 8.5l-7 53q-3 7 -10 20.5t-10 20.5q14 5 42 18.5t44 18.5q16 4 48 4h40q-37 62 -41 70q-28 47 -42.5 107.5t-16.5 100.5t-2 113q-2 31 7.5 46.5t41.5 19.5q22 4 46 14t51.5 23t39.5 18q9 4 33.5 15
t27.5 12q7 0 11 -2l405 110l6 6h-10q-163 -37 -305 -73q-24 -10 -41 -13q-2 -2 -20 -6q-20 -10 -25 -10q-6 0 -12 2q-6 -2 -17 -6.5t-18 -7.5l-70 -25q-4 -2 -10 -2q-8 -4 -10 -4q-3 0 -11 -4l-47 -17l-2 -6q-8 -5 -17 -6.5t-22.5 -3t-21.5 -2.5h-21q3 3 7.5 12.5t7.5 12.5
q1 1 9 6t13 8q-1 0 -13.5 -2t-18.5 -4l14 16q1 5 0 16.5t0 16.5q18 73 49.5 212t46.5 202q19 57 57 108q11 19 66 51l-55 -12q-114 -22 -271 -65q-6 0 -8 2q-3 7 -16.5 12.5t-23.5 8.5t-8.5 13.5t22.5 28.5q2 1 7.5 4t9.5 5t10.5 8t12.5 14l19 26q49 20 141 54t135 51
q15 5 47 26t50 25q27 7 80 11t77 10q51 9 160 34t168 35q12 1 40 7t44 8t38 -4t38 -23q9 -8 16 -17t13 -23.5t8.5 -21t8.5 -25.5t7 -22q2 -11 -5.5 -28.5t-17.5 -26.5q-2 -6 -23.5 -2t-29.5 2q-14 -1 -46 -7t-52 -7q-43 -8 -145 -23t-156 -26q-74 -10 -96 -74
q-72 -219 -142 -412q-1 -4 -2 -12t-2 -12q3 1 8.5 1.5t9.5 1.5t7 3q45 10 139.5 33.5t144.5 33.5q11 3 24.5 3.5t22.5 0t25.5 -2t22.5 -1.5q6 -2 14 -14t10 -14q33 -41 25 -82q-3 -13 -12 -29q-3 3 -5 12.5t0 12.5l-14 -8l-2 -7l10 -4q-28 -34 -63 -52t-91.5 -31.5
t-76.5 -20.5q-54 -21 -113.5 -41.5t-140.5 -46.5t-115 -37q-1 -1 -2.5 -3.5t-3.5 -4.5h10q8 0 22.5 3.5t25.5 7t21 3t13 -7.5q-13 -7 -16 -12q0 -23 -5.5 -68.5t-4.5 -81.5t14 -68q8 -21 45 -77q4 -2 8 -13l-22 -4q0 2 -4.5 6.5t-6.5 8.5q-22 22 -32 34q10 -22 24 -32
l10 -17q5 -8 11 -13t11 -8.5t13.5 -4t13.5 -0.5t15 2.5t13 3t14 4.5t12 4q231 65 569 164q6 2 18.5 3.5t14.5 2.5q13 8 27 5.5t14 -26.5l12 5q6 -2 3 -7q-1 -1 -1 -2l-24 -24q6 1 18 2t19 2h12q-11 -11 -19 -27v-6q-74 -51 -84 -59q-4 -3 -4 -23q7 -3 6.5 -9.5t-14.5 -18.5
q-358 -166 -368 -170q-26 -11 -60 -19q-79 -13 -163 -14.5t-150 2.5zM408 743q10 0 10 19q40 135 59 217l-10 -14q-4 -11 -8 -29q-7 -23 -25 -82.5t-28 -89.5q0 -3 1 -10t1 -11zM205 494q3 -4 5.5 -3.5t9 4.5t9.5 5q30 6 76 20q47 14 455 142q6 1 17.5 5t15.5 5
q7 5 17.5 14.5t16.5 13.5q-2 1 -5.5 3.5t-6 4.5t-4.5 1q-21 -7 -152 -56q-3 0 -11 -2t-11 -2l-12 -6q-15 -7 -25 -10l-29 -8l-39 -9l-20 -6q-6 0 -20 -14q-13 0 -37 -4q-12 -4 -13 -4l-34 -10q-10 -2 -15 -5l-168 -53h-6q-1 -3 -4 -7t-4 -5l14 2q-12 -12 -20 -16zM281 485
q13 3 30 13h-12q-10 -2 -27 -11zM455 -195q-141 -11 -228 43q-4 1 -5.5 12.5t1.5 14.5q7 8 19.5 15t19.5 4q120 -31 262 0q47 15 80 20q14 -3 29 -12l-6 -13q-1 -1 -7.5 -6t-9.5 -6q-28 -5 -80 -16.5t-75 -16.5q-7 -1 -29 -12q20 -8 31 -8q5 -3 13.5 -1t15 1.5t3.5 -6.5
q-5 -1 -16 -7.5t-18 -5.5zM393 -168q11 0 15 4q-2 0 -5 3t-6 3l-20 -6z" />
    <glyph glyph-name="F" unicode="F" horiz-adv-x="1130" 
d="M188 -109q-19 5 -29 15.5t-11.5 18t-2.5 26.5q-8 112 7 239h-13q-16 -94 -16 -268q0 -4 -2 -10.5t-2 -9.5q-2 4 -9 10.5t-8 9.5q-12 56 -10.5 138t8 138.5t15 138.5t10.5 138l2 10q21 84 -41 121q-3 4 -3.5 14.5t1.5 16.5q2 5 9 21.5t11.5 24.5t15.5 17t27 13q4 1 6.5 9
t5 22t3.5 18l74 295v18l-13 47v11q7 3 25 8l2 8q-8 3 -19 10l13 8q-1 -1 1 -1q15 -1 33 13q9 7 9 15q-23 -8 -37 -10l-68 -21q-2 -1 -5.5 3.5t-5 9t0.5 6.5q10 5 14 9t0.5 8.5t-6 6t-10.5 6.5q-15 9 -16.5 16t8.5 19q3 6 12 15q-2 19 2.5 31t17 18t22 8t28.5 4q52 8 78 18
q12 5 31.5 19.5t29.5 19.5q7 4 17 12t18 13.5t18 9.5t21.5 3t23.5 -9t26.5 -12.5t25 -6t27.5 0.5t24.5 3.5t27.5 6.5t25 6q94 23 282.5 70t282.5 69q26 6 113 15q12 0 16 -4.5t4 -20.5q0 -24 -10 -32t-23.5 -5t-27.5 -2q-19 2 -70 -10l-49 -23q48 6 51 6q35 7 58 7
q15 3 30 0l-10 -10t-16 -11q-45 -16 -199 -61l-444 -135l-13 -13q2 1 7.5 2t7.5 2l485 127q9 3 16 -1t7 -13q-35 -12 -100 -31.5t-103 -32.5q-208 -68 -328 -110q-18 -6 -22 -25q-8 -20 -117 -311q-2 -8 -2 -25l20 5q261 54 561 110q7 1 11.5 0.5t13 -3t12.5 -3.5
q-5 -3 -15 -7t-15 -7l-39 -23q16 3 28 0l-28 -16l-33 -17q6 -1 28.5 2t28.5 2q10 1 11.5 -1t1.5 -9l-66 -20l4 -11l90 19v-6q-7 -3 -47 -13q-80 -22 -176 -51q-2 -1 -16 -10h20q4 1 16 3.5t18.5 4t15 1.5t12.5 -3q-4 -4 -27 -9.5t-31 -8.5q-30 -6 -67.5 -21t-49.5 -18
l218 47q4 1 13 0t13 0q-3 -2 -8 -6t-8.5 -6t-7.5 -2q-333 -90 -459 -125q-76 -24 -113 -49q-19 -17 -28 -72q-5 -39 -29 -237t-39 -302q-1 -6 -5 -13t-12 -17t-10 -13q-28 28 -30 39q-2 33 -9 111t-8 119h-6q-28 -107 4 -263q0 -2 3 -12t3 -12t-0.5 -8.5t-5 -7.5t-12.5 -1.5
t-21 2.5zM408 958h6l53 148l12 51l-26 -47q-2 8 -2 27q-24 -19 -27 -25q-17 -39 -25 -70q-1 -3 1 -4t4.5 -0.5t3.5 2.5l16 47q0 3 8 11q0 -1 1.5 -6t0.5 -7q-14 -76 -26 -127zM203 573q1 2 4.5 11t3.5 14q12 58 41.5 176.5t42.5 183.5q5 22 14.5 69t14.5 67q0 6 -4.5 14.5
t-8.5 9.5q-6 4 -16 1.5t-12 -7.5q-7 -25 -27.5 -86t-28.5 -94q0 -2 5.5 -5t5.5 -5q2 2 2 8q35 111 51 155l16 -4l-108 -481l6 -2z" />
    <glyph glyph-name="G" unicode="G" horiz-adv-x="1251" 
d="M999 -176q-9 17 -10 24l-12 52l-12 32q-2 -6 -8.5 -18t-8.5 -18q-4 -24 -4 -35q-19 24 -22 33q-55 182 -43 362v16q-10 -3 -13 -10q-59 -81 -108.5 -133t-114.5 -86l-31 -20l-43 -27l-39 -25l-45 -18q-6 -2 -19.5 -8.5t-24.5 -10.5t-21 -6q-4 -2 -10.5 0t-17.5 5t-23 4
q-81 -27 -168 30q-13 16 -41.5 47.5t-48.5 57.5t-33 51q-40 81 -52 172.5t-2 172.5t37 177q74 268 308 545q140 161 280 217q215 83 369 41q20 -5 24 -8q2 -2 -0.5 -8.5t-5.5 -6.5q-281 54 -530 -149l-39 -33l-109 -117l-12 -18q143 112 240 184q147 119 370 113
q28 0 107 -27h2q5 -4 19.5 -12t25.5 -16.5t14 -16.5q30 -143 -63 -258l-17 8l33 72l-59 -37q-9 -6 -17 -18q-8 16 -8 30l-18 -55l-17 2q12 109 -51 142q-82 44 -182 -5q-186 -98 -311 -329q-131 -261 -117 -502q1 -11 2.5 -22t4.5 -23.5t5.5 -22t8 -24t8.5 -22t10 -23t9 -21
t10 -22.5t10 -21q39 -81 147 -49q63 21 114.5 61.5t108.5 102.5q58 56 164 174q3 5 7 19t7 20q-27 0 -32 -2q-39 -13 -110 -40.5t-105 -39.5q-109 -37 -164 -43q-46 -6 -69.5 22.5t-14.5 75.5q2 13 7.5 36t6.5 30q0 8 -2 10q-7 9 -10.5 17t-5 13.5t2 11.5t5.5 9t10 8t10.5 6
t13 5.5t11.5 5.5q270 145 524 164q3 0 19.5 0.5t22.5 1.5t18 5t18.5 13t11.5 23q0 3 18.5 3.5t30.5 -1.5q28 -4 45.5 -29t8.5 -47q1 -3 3 -10t3 -13.5t0 -11.5q-10 -32 -32 -99t-38 -119t-28 -101q-14 -59 -33 -168.5t-25 -139.5q0 -3 -3 -3t-3 3q0 7 -6 19q0 -3 -6 -21
q-2 -42 -5 -125.5t-5 -125.5q0 -6 -3 -16t-4 -13z" />
    <glyph glyph-name="H" unicode="H" horiz-adv-x="1136" 
d="M745 -250q-1 2 -5 7t-5 7q-2 23 -10 113.5t-11.5 146.5t-4.5 111q-1 69 9 197t11 145q2 5 -6 13t-14 8q-129 3 -260 0q-5 0 -13 -7.5t-8 -11.5q-1 -61 -13 -188.5t-12 -192.5q-1 -20 -1.5 -82t-2.5 -96q-1 -6 -5 -14.5t-8.5 -14t-12.5 -15t-11 -13.5q-4 5 -14 16.5
t-16 20.5t-10 18q-35 59 -66 139q-1 -1 -13.5 -18t-17.5 -25q-2 2 -8 7t-8.5 8t-1.5 6q-9 78 -13.5 224.5t-9.5 209.5q-3 6 -13.5 13.5t-16.5 9.5q-84 -5 -144 -15l-10 2q1 2 4 5t4 5q5 10 6 13q-1 0 -3 1.5t-3 0.5l-31 -6q-26 15 -43 53l-6 6q6 6 6 8q32 13 106.5 29.5
t121.5 30.5q9 0 17.5 9t8.5 17q-1 138 26 276.5t79 315.5q12 37 39.5 118t40.5 124q7 20 51.5 33.5t73.5 7.5q86 -20 117 -86t-3 -142q-126 -293 -157 -489q-12 -54 -19 -137q-2 -3 5 -10.5t10 -6.5q241 15 294 19q7 2 15.5 8.5t9.5 13.5q106 390 191 723q11 43 40 62t78 22
q39 1 68.5 -42t15.5 -79q-39 -102 -98 -290q-42 -125 -84 -279q-5 -26 -12.5 -79t-12.5 -79q-3 -16 -15 -55.5t-15 -62.5q-25 -138 -35 -238q-13 -100 -23 -240q-1 -5 0.5 -14.5t1.5 -13.5l-10 -92q0 -29 -6 -39q-4 -6 -15.5 -16t-13.5 -11q-5 -4 -15 -8.5t-16 -9t-8 -9.5
q-2 -15 -1.5 -41t-0.5 -41q2 -6 -2 -14q0 2 -2 5t-2 5l-12 43l-10 -43z" />
    <glyph glyph-name="I" unicode="I" horiz-adv-x="628" 
d="M246 -217q-34 20 -33 31q-1 24 -1 33t2 33t3 34l-14 -2l-6 -76q-1 -5 -6.5 -13.5t-6.5 -10.5q-19 19 -22 24l-10 8q-22 18 -48 50q-25 29 -22 47q28 353 53 598q6 59 12 132t12.5 129.5t18.5 131.5q6 38 22.5 114.5t22.5 114.5q3 12 10.5 66.5t16.5 81.5q28 87 67 147
q35 51 108.5 45.5t102.5 -59.5l27 -29q1 -13 -2.5 -35t-3.5 -32q-1 -10 -1 -53.5t-3 -65.5q-6 -38 -25.5 -108t-25.5 -103q-4 -18 -37 -209q-4 -17 -16.5 -60t-16.5 -67q-9 -63 -15.5 -136.5t-15.5 -137.5l-10 2l-12 -105q-8 -91 -16.5 -253.5t-10.5 -186.5l-2 -27
q-12 28 -14 76q0 -7 -4.5 -21t-4.5 -20q-2 -12 -2 -37t-2 -37q0 -3 -2 -5t-5.5 -5t-4.5 -4l-6 14q3 43 8 179t12 210q7 87 39 373q2 7 -2 19q0 -3 -7.5 -8.5t-8.5 -6.5l-35 -330l-18 -208q-15 -189 -21 -224q-1 -4 -5 -8.5t-8 -7.5t-5 -2z" />
    <glyph glyph-name="J" unicode="J" horiz-adv-x="1148" 
d="M317 -133q-61 -13 -106 -16t-103 12.5t-110 56.5q-3 2 -8.5 9.5t-7.5 9.5q2 0 8.5 2t9.5 2q101 0 229 67l-84 -19q-50 -12 -82 -22q-7 -2 -47 4q4 1 16.5 6t20.5 7l97 24q-32 0 -46 -2q7 2 20.5 7.5t20.5 7.5q183 46 267 260q125 319 155 770q4 43 11 65q8 29 0 35.5
t-37 3.5q-95 -8 -289 -16q-27 -2 -89.5 36.5t-72.5 65.5q-3 11 -2.5 17t4 18t4.5 18q1 8 -0.5 34t2.5 32q2 9 10 18t17 9q172 8 516 16q232 4 344 0q34 -1 225 -21q4 0 19 -10q-2 -1 -8 -4.5t-9 -3.5q-71 0 -108 2l-55 -4q-17 -4 -23 -23q160 -11 250 -20q4 0 8 -3t9.5 -8
t9.5 -7q-6 0 -18.5 -1.5t-18.5 -1.5q-14 0 -41 2.5t-41 2.5q-5 0 -49 -11q-10 -2 -4 -5l8 -1h116q3 0 10.5 -2.5l10.5 -3.5q-9 -14 -12 -14q-131 -16 -248 -27l-101 -12q-2 0 -8 -6q3 -1 16 -7t19 -6l2 -10q-64 -4 -96 -8q-6 0 -11.5 -5.5t-5.5 -10.5l3 -66q4 -12 4 -16
q-7 -48 -27 -218t-37 -260q-53 -266 -117 -426q-101 -273 -340 -323zM752 995l32 160l-4 16h-4q-3 -11 -14 -40t-14 -46q-2 -16 1 -47.5t3 -42.5z" />
    <glyph glyph-name="K" unicode="K" horiz-adv-x="1306" 
d="M1206 -115l-24 -4q-41 -2 -56 8q-278 180 -442 316q-53 38 -105 78t-130.5 102t-102.5 80q-2 1 -5.5 2t-4.5 2q-6 -6 -6 -16q-6 -46 -13.5 -133t-9.5 -109q-4 -25 -17.5 -98t-19.5 -113q-2 -13 -6 -47.5t-8 -52.5l-61 30l-35 17l-29 22l-41 51q-4 17 -5.5 36.5t-1.5 47.5
t-1 41q0 41 0.5 119t0.5 126.5t3.5 116t9.5 124.5q47 443 187 749q17 46 55 66q29 14 68 25.5t85.5 17t71.5 -9.5q6 -1 11.5 -11t3.5 -16q-44 -127 -179 -494q129 107 179 144q299 235 596 459q65 45 100 45q56 3 121 -27q22 -8 23.5 -23.5t-25.5 -31.5q-4 -2 -15.5 -8
t-17.5 -9.5t-14.5 -9t-13.5 -11t-7 -11.5q-10 -26 -29.5 -42.5t-47.5 -30.5t-40 -24q-34 -24 -100 -62.5t-84 -49.5q-8 -3 -16.5 -7t-19 -10l-17.5 -10q-46 -23 -60 -37q-230 -172 -364 -282q-18 -14 -38.5 -34.5t-31 -32.5t-36.5 -42t-31 -35q-3 -3 -2 -13t4 -15
q91 -106 211 -222t210.5 -194.5t231.5 -196.5q36 -30 107 -86t79 -63q3 -2 7.5 -9t7.5 -10q-4 1 -12 2t-11 2q-18 10 -47.5 29t-42.5 27q26 -26 88 -84q2 -2 4 -7t4 -8q-23 -4 -30 -4t-27 4l20 -14l23 -20l-8 -9q-3 -1 -10.5 -1t-10.5 1z" />
    <glyph glyph-name="L" unicode="L" horiz-adv-x="1095" 
d="M262 -160q-60 -6 -104 33q-13 12 -55 32.5t-56 39.5q-45 48 -57 135q-3 26 17 37.5t54 11.5q4 -1 8.5 2t4.5 8q7 40 53.5 296t73.5 390q10 68 37 184t47 167q1 3 7 9.5t7 8.5q0 -5 1 -14t1 -13q-4 -20 -4 -30l14 28q7 22 19.5 66t20.5 70.5t20.5 63.5t25.5 69
q15 38 52.5 52t78 7t72.5 -27q19 -11 -14 -127q-3 -10 -22.5 -60t-26.5 -79q-24 -87 -69.5 -310.5t-51.5 -250.5q-9 -44 -14.5 -93t-10.5 -116.5t-8 -95.5q0 -6 -3.5 -15.5t-4.5 -13.5l-6 -98l-11 2q0 21 0.5 79.5t2 99t6.5 77.5q36 270 51 356q0 3 -10 -31t-23.5 -84
t-19.5 -83q-30 -228 -33 -410q0 -8 1 -25t1 -26q0 -2 5.5 -5t8.5 -3l483 55q81 13 136 -57l18 -50q19 -26 19 -34q-17 -25 -33 -39q-10 -8 -27 -11q10 -10 37 -28q6 -6 -6 -10l-318 -27l2 -21l275 13q5 -1 15.5 -0.5t20.5 1.5t18 2l9 1q-3 -2 -19 -19.5t-28 -19.5
q-31 -4 -100 0h-25l-215 -19q-58 -9 -174.5 -25.5t-173.5 -25.5zM547 1147l14 61q0 3 5.5 20t14 43.5t13.5 41.5l45 127q1 -2 9.5 -15t8.5 -16z" />
    <glyph glyph-name="M" unicode="M" horiz-adv-x="1611" 
d="M1473 -256l-29 12l-14 -10q-5 9 -20.5 28.5t-20.5 30.5q-34 70 -43 113q-31 127 -64 285l-10 22q22 -172 41 -284q2 -13 11 -41.5t11 -44.5l-8 -27l-22 14q-10 34 -43 158l-7 -2q0 -15 2.5 -41.5t2.5 -40.5l-7 -14l-6 12q-4 60 -24 285t-23 346q-3 78 0 164.5t9 195
t8 164.5l-3 21l-14 -15l-317 -596q-4 -15 -9 -28q-15 -31 -55.5 -118t-64.5 -134q-2 -4 -14 -28.5t-17.5 -34.5t-17 -26.5t-23.5 -27.5q-18 -18 -49 -27.5t-45 0.5q-26 15 -46.5 48.5t-13.5 50.5q14 31 9 67.5t-15.5 60t-24 57t-16.5 58.5q-6 54 -57 361l-4 10l-4 -10
q-25 -89 -70 -259t-67 -249q-15 -54 -46.5 -151.5t-42.5 -133.5q-2 -4 -2.5 -14.5t-2 -15.5t-8.5 -9.5t-21 2.5l-9 -10q-2 -3 -7.5 -12.5t-9 -14t-7.5 -4.5q-25 -1 -32 12.5t-3 37.5l37 210h-4l-60 -243q-2 -7 -13.5 -17.5t-14.5 -15.5q-2 3 -8 10.5t-9 11.5t-6 10.5
t-4 12.5q-6 39 -5.5 81t4 75t14.5 79t18.5 73t22.5 77.5t22 73.5q65 227 201 633q20 58 106 258q14 31 61 38.5t72 -18.5q3 -3 1.5 -14t-5.5 -17q-6 -17 -22 -48.5t-23 -47.5v-10l8 8l80 92q3 3 7.5 5.5t11 6t10.5 5.5q1 -3 4.5 -9.5t5.5 -12t2 -9.5q0 -48 -2 -143t-2 -142
q0 -89 10 -153q4 7 10 51l5 10l6 -10q1 -16 3 -45t4 -53t5 -45q5 -29 17.5 -80t15.5 -68l8 -18l8 18q170 312 250 451q19 35 42.5 72t53.5 82t45 69q21 38 52 88q59 67 86 96l8 12q16 55 55 78.5t98 32.5q30 4 48 -15.5t20 -54.5q1 -15 12.5 -39t12.5 -28q2 -5 7.5 -18.5
t8.5 -23.5t2 -18q-3 -32 -17 -134t-14 -158q-5 -191 6 -476q4 -105 13.5 -299.5t11.5 -228.5q1 -34 -0.5 -98.5t-1.5 -83.5l8 -29l2 -18l-22 2q0 -7 3.5 -21.5t4.5 -19.5q-1 -6 -6 -17.5t-6 -15.5zM332 739l16 17q3 8 7 24.5t7 24.5q83 276 87 287q-35 -62 -39 -76
q-16 -50 -43 -143.5t-33 -114.5zM1442 223h8q-3 29 -23 148q-1 -30 6.5 -83t8.5 -65z" />
    <glyph glyph-name="N" unicode="N" horiz-adv-x="1249" 
d="M250 -328q-2 25 -5 73t-5 73l-11 22l-4 -20q-8 -53 -14 -76q0 -2 -6 -8q0 1 -2 4.5t-2 5.5q0 6 1 19.5t1 19.5l-2 22l-8 -22l-11 -21l-6 25q0 7 2 20t2 23t-4 18q-16 38 -15.5 89t7.5 90t0 90l-8 -2q-6 -91 -15 -178q-1 -14 -3 -29.5t-5 -34.5t-4 -29l-10 -12l-4.5 9
t-3.5 10q-1 20 -2 61.5t-2 62.5h-5q-1 -11 -1.5 -31.5t-1.5 -37.5t-3 -33q0 -6 -6.5 -17.5t-7.5 -13.5q-14 23 -14 31q0 105 6 213q3 53 7 151t8 177t9 149q15 218 50 625h14q-2 -24 -5 -73.5t-5 -74.5h8q6 37 14.5 110t9.5 83l13 117q1 20 10.5 27t30.5 5q23 -3 43 7
q22 9 38.5 10t27 -4.5t19.5 -17.5t13.5 -23t11 -27.5t11.5 -25.5q16 -31 37.5 -93t33.5 -88q66 -150 129 -280q27 -59 77 -166.5t67 -143.5l6 -28l-19 18q-22 39 -143 260l-16 21l6 -23q20 -37 57.5 -111.5t56.5 -111.5q4 -5 5.5 -11t2 -11t1.5 -7l14 -24l10 -21q2 -5 7 -11
t7 -9l21 -33h4q5 24 16.5 78.5t16.5 83.5q141 702 178 878q16 75 59 193h4l-26 -131l6 -2q7 23 20.5 70t20.5 71q1 4 3.5 8.5t5 7.5t7 7.5t6.5 7.5q4 -5 12.5 -15t14 -18t8.5 -16q2 -10 1.5 -15.5t-3.5 -17t-4 -16.5q-5 -41 -29 -185h7l49 191l6 20l25 21q0 -4 2 -12.5
t2 -12.5q-3 -170 -49.5 -478t-55.5 -413q-25 -304 -37 -510l8 -4q2 5 4 21.5t5 23.5l2 -2q0 -34 -2.5 -205.5t0.5 -205.5q3 -117 -135 -138q-29 -4 -57.5 22t-45.5 73q-20 53 -45 127q-5 44 -21.5 90.5t-33 77t-46 80.5t-42.5 75l-4 2q29 -70 84 -196l-54 90l-45 67h-4
q-101 212 -155 336q-17 38 -43 109.5t-35 93.5l-9 12l-8 -24q-26 -174 -28 -201q-5 -50 -15.5 -148t-18.5 -174.5t-13 -146.5q-5 -60 -9.5 -127t-9 -153.5t-6.5 -127.5h-4zM297 784l2 27l10 -23v123l-6 13l-4 -15q-4 -82 -8 -123zM1028 647h6l25 174l2 33l-10 -27
q-19 -139 -23 -180zM1016 528h4q2 25 10 80l-10 -2q-4 -54 -4 -78zM1032 100q2 10 8 43q0 5 -1 13t-1 10l-10 -25q0 -2 -1 -6.5t-1.5 -7.5t-0.5 -7v-7t0.5 -5.5t2.5 -4.5t4 -3zM252 -403q-19 16 -19 41l19 2l2 -19q-2 -12 -2 -24z" />
    <glyph glyph-name="O" unicode="O" horiz-adv-x="1257" 
d="M705 -82q-79 -59 -165.5 -76.5t-164.5 4.5t-146 82t-112 150q-138 286 -56 643q85 351 295 592q43 50 87 76t102 16q6 -1 13.5 2.5t20.5 12.5t15 10q39 23 73.5 38t73 23.5t78.5 5t80 -19.5q3 -1 13.5 -1.5t13.5 -2.5q99 -74 164 -153.5t94 -180.5l8 -15q1 -13 0.5 -28
t1.5 -28t8 -13v63q1 9 -7.5 38t-8.5 36l8 6l16 -27q37 -113 7 -303q-65 -408 -285 -710q-126 -167 -227 -240zM735 172q123 113 207 330q80 201 66 481q-12 199 -177 330q-92 74 -200 24q-5 -2 -10 -8t-5 -10q1 -5 8 -27.5t7 -34.5t3.5 -51.5t2.5 -64.5t-8 -47
q-17 -49 -60.5 -135t-58.5 -121q-11 -25 -20.5 -55.5t-19 -68t-15.5 -57.5l-4 -26q-38 -208 16 -371q35 -101 114.5 -127.5t153.5 39.5zM481 834l11 32q24 72 51 160l-4 12l-11 -12q-6 -22 -23 -75.5t-24 -82.5v-34zM420 305q-41 265 16 445q6 22 11 47t10 55.5t8 48.5l-4 2
q-2 -5 -15 -46.5t-15.5 -49.5t-14 -45t-14 -49.5t-10.5 -46t-9 -50t-4.5 -46t-2.5 -50t3.5 -46.5t7.5 -50q2 -9 5 -24.5t5 -25t5 -22t5 -20.5t4 -15t4.5 -10t4.5 -2zM221 236h8q-45 136 -39 266l5 24l8 80h-6q-21 -110 -17 -157q-10 -90 41 -213zM193 184l6 2
q-42 86 -45 166q-12 -3 -7 -39q0 -42 46 -129z" />
    <glyph glyph-name="P" unicode="P" horiz-adv-x="1171" 
d="M997 1362q100 -37 153.5 -114.5t52 -168t-51.5 -172.5q-82 -129 -197.5 -230.5t-269.5 -195.5q-222 -133 -387 -172q-7 -1 -15 -14t-8 -21q2 -63 17 -370q0 -13 -4 -29q-1 2 -5 7.5t-6 10.5t-2 9l-12 149q0 4 -4 12v-12q0 -24 1 -69.5t1 -67.5q0 -5 -4 -15t-4 -12
q-6 4 -10 7.5t-6.5 8t-4 7t-2 8t-0.5 7.5v9.5v10.5q-3 -19 -8 -31l-6 -20q-8 20 -10 24l-6 25q-4 -20 -4 -27l6 -61q1 -6 1 -14.5t-1 -8.5q-31 -10 -41 -4q-47 26 -67 68t-23 102q-32 542 133 991q22 59 73 72l-2 -12l33 22l23 14l32 17q25 15 31 18l-45 -10
q-117 -36 -211 -133q-12 -10 -37 -35q-5 -2 -15 -5t-15 -5q2 5 5 17.5t5 17.5q3 11 14 26l-20 6q0 11 -15 -4q-2 -2 -8 -10.5t-9.5 -12.5t-6.5 -3q-37 4 -55 24q-6 6 -7 22.5t4 22.5q127 123 205 189q40 37 90 55q12 4 22.5 10.5t17 12t14 17.5l10 16t10 19.5t8.5 18.5
q28 57 99.5 73t117.5 -26q15 -18 43 -18q227 14 383 -43zM926 1036q13 75 -54 97q-60 16 -180 32q-84 9 -110 -14q-131 -109 -176 -190q-33 -57 -55 -131.5t-30 -124t-19 -140.5q-1 -5 -1 -8t-1 -7.5t-1 -8.5q-6 -27 5 -32.5t32 5.5q117 37 156 55q175 78 323 271
q66 76 86 115.5t25 80.5zM35 909q0 11 4 19l14 -21q-3 0 -9 1t-9 1zM834 651l16 25q-77 -54 -141 -84l-7 -14z" />
    <glyph glyph-name="Q" unicode="Q" horiz-adv-x="1114" 
d="M797 -201q-3 2 -5 4t-4.5 5t-3.5 4q-3 3 -5.5 12t-4.5 14t-7.5 2.5t-14.5 -18.5q-5 5 -15.5 13t-15.5 13q-44 51 -98 123q-5 6 -12.5 17.5t-14.5 20t-14 14.5q-6 4 -19 5.5t-20 -1.5q-23 -12 -63 -36t-74 -41.5t-66 -27.5q-87 -26 -162.5 23t-111.5 147q-75 200 -21 477
q75 387 375 830q28 42 72 63t96 11q2 0 2 -21q0 -3 -1 -8t-1 -8l14 8q18 9 64 37l-31 -37q-4 -5 5 -2q5 2 18 8q27 12 40 16h11q1 0 4 -1t5 -1t3 2q57 49 119 2q2 -2 12 -2l18 -8q20 -17 34.5 -27t19 -12t10.5 -7.5t16 -18.5q2 -2 5.5 -9.5t5.5 -9.5h-7q-1 2 -3.5 4.5
t-3.5 4t-1 3.5l-4 -8q0 -1 8.5 -12.5t19 -27t13.5 -23.5q3 -7 7 -19.5t5 -15.5l-8 8q-13 26 -22 37q1 -4 3 -14t4.5 -18t6.5 -13q57 -88 53 -248q0 -180 -22 -260q-36 -130 -127 -319q-13 -27 -31.5 -59.5t-29 -48.5t-38.5 -59.5t-32 -49.5q-3 -7 -14.5 -16t-14.5 -13
q-12 -25 -6 -37q10 -15 41.5 -59t46.5 -68q36 -51 65 -125q8 -13 -16 -47q-7 -13 -24.5 -35t-22.5 -29zM350 205q12 -4 20 -3.5t25.5 4.5t26.5 5q-11 33 -14 39q-4 7 -20 23t-19 26q-26 64 -15 78q41 63 98.5 64t104.5 -58q3 -3 12.5 -4t12.5 2q23 23 34 45q117 230 150 301
q73 152 55 326q-14 140 -141 227q-2 2 -9.5 -1t-8.5 -7q-9 -20 -21.5 -56t-17.5 -49q-17 -37 -127.5 -276.5t-167.5 -368.5q-11 -23 -22.5 -73.5t-12.5 -55.5q0 -8 -8 -24q0 4 -1 11.5t-1 12.5q0 59 12.5 128.5t24 109.5t41 127.5t36.5 111.5q17 54 63 153t52 114
q-12 -12 -14 -15q-11 -25 -80.5 -178.5t-100.5 -236.5q-79 -221 -34 -381l12 -27q0 17 6 29l6 32q0 -3 1.5 -14t0.5 -18q-22 -80 41 -123zM719 252q62 92 76 127q64 156 139 375v26q-1 -2 -2 -7t-2.5 -9t-3.5 -8q-11 -31 -55.5 -158.5t-71.5 -194.5q-10 -23 -23.5 -48
t-30.5 -55.5t-26 -47.5z" />
    <glyph glyph-name="R" unicode="R" horiz-adv-x="1214" 
d="M1081 -143q-12 15 -26 22q-10 7 -29.5 24t-28.5 23q-4 2 -16 2q1 -2 1 -7t1 -7q17 -17 27 -25q8 -12 14 -18l-23 10l-28 13l16 -23q-7 1 -21 5t-22 5l-346 236q-46 28 -131 84t-96 63q-32 19 -29 -18q1 -26 4 -81t4 -81q0 -12 -4 -37t-4 -39q0 -3 -4 -6.5t-6 -3.5
q-8 2 -15 12q-2 1 -9.5 8t-12.5 9q-10 -9 -12 -15q-21 -31 -59.5 -34.5t-61.5 20.5q-45 43 -65 101t-18.5 114.5t3.5 120.5q5 173 54.5 347t137.5 384l5 20q-3 -2 -10.5 -5t-10.5 -5q-134 -90 -166 -114q-28 -22 -71.5 -14t-57.5 36q-22 46 -13.5 74t52.5 63
q81 70 176.5 119t231.5 102q4 2 12.5 11.5t13.5 11.5q11 5 35 19t42.5 22t35.5 10q26 5 52 6.5t68 2.5t52 1q37 1 113 4.5t136 5.5t115 1q50 -1 95 -28t73 -71q19 -29 20.5 -63t-7 -63.5t-27.5 -67.5q-63 -129 -209 -254l-4 4q86 100 111 135q-7 -8 -23 -22t-22 -21
q-60 -76 -135 -139t-177 -133l-6 -6l-6 -17l-31 -8l-12 -20q-24 -12 -33 -15q-9 -5 -14 -16l-62 -43l-8 -6v-4l-20 -15q-12 -8 -46 -34t-55 -37q-15 -11 -17 -20t2 -13.5t15 -12.5q138 -109 209 -174q163 -160 365 -376q3 0 10.5 -18.5t7.5 -20.5zM373 1219h14q19 3 54.5 16
t52.5 16q26 6 235 43l21 9q-8 4 -17 4q-94 -4 -131 -13q-42 -11 -114.5 -36.5t-100.5 -34.5h-14v-4zM389 621q1 -1 7 -1t15 2t13 5q4 0 10.5 4t16.5 11.5t18 12.5q45 35 138 103.5t138 103.5q177 139 261 283q33 55 -21 80q-27 18 -47 18q-131 -3 -242 -14q-20 -2 -44 -13.5
t-34 -25.5q-30 -42 -56.5 -91.5t-44 -88t-38.5 -99.5t-31 -92t-31 -102.5t-28 -95.5z" />
    <glyph glyph-name="S" unicode="S" horiz-adv-x="1071" 
d="M70 -158l49 31q1 1 6 5.5t10 6.5h-22l-156 -30q-6 -2 -18 2q3 10 12 16l84 39q415 181 629 479q50 69 38 104t-90 48q-63 12 -180 22.5t-151 14.5q-68 4 -112 14.5t-83 42.5q-61 50 -70.5 97.5t29.5 117.5q82 153 289 303q122 88 231 147t226 89q33 8 55 11.5t50 2.5
t51.5 -13t43.5 -36q24 -33 19 -49q-3 -9 -41 -33q-38 -15 -121 -46t-146 -56.5t-120 -53.5q-82 -39 -234 -155q-23 -18 -54 -67.5t-36 -55.5q-23 -27 12 -27q236 -8 359 -14q159 -7 250 -72q73 -52 98 -135q10 -36 11 -70t-7.5 -64.5t-20.5 -56t-33.5 -53t-39.5 -47.5
t-45 -47q-3 -3 -18.5 -20.5t-24.5 -24.5q-35 -23 -105.5 -67t-105.5 -66q-122 -81 -205 -127q-37 -20 -160 -70l-43 -24h-6q-21 -4 -35 -9q4 8 4 13q-6 0 -14 -4q-10 -1 -31.5 -6.5t-27.5 -6.5z" />
    <glyph glyph-name="T" unicode="T" horiz-adv-x="980" 
d="M492 -135q-46 18 -52 78q-1 17 -14 69l-4 -4l12 -90v-22q-21 5 -22 6q-25 16 -42 44t-22.5 46t-15.5 57h-4q0 -3 -1 -9t-1 -9l-7 14q-15 63 -22 133.5t-9 122.5t4 136.5t9.5 122t15.5 136t15 125.5q6 54 26 158t23 121q0 3 -8 9t-11 5q-30 -12 -90 -38.5t-90 -39.5h-10
q-10 5 -20 15l-5 -2q-7 -2 -46 -12t-62 -15q-8 -2 -25 -2l-2 20q4 5 9 13.5t6 9.5q-15 -11 -27 -16l-35 -13q1 8 0.5 16.5t0 16.5t3.5 10q19 12 75 47.5t94.5 59t76.5 43.5q53 26 153 70t136 61q8 4 24 17t25 16q21 8 65 16q70 13 130 27q24 5 69 14.5t81 16t69 10.5
q12 3 30.5 -11.5t30.5 -31.5q14 -22 41 -97q1 -3 -4 -8.5t-8 -5.5q-24 0 -74 4q-4 0 -24.5 2.5t-24.5 -0.5q-29 -8 -114.5 -35.5t-133.5 -38.5q-59 -13 -70 -75q-35 -137 -53 -275q-12 -94 -30.5 -267.5t-22.5 -211.5q0 -1 -6 -25q-1 -17 -7.5 -68.5t-7.5 -80.5
q-1 -50 3 -207q1 -28 4 -84.5t4 -85.5q1 -1 -2.5 -4.5t-5.5 -3.5z" />
    <glyph glyph-name="U" unicode="U" horiz-adv-x="917" 
d="M786 1081q28 -30 38.5 -68t8 -66.5t-9.5 -73t-8 -66.5q-7 -188 -59 -459q-7 -38 -20.5 -76.5t-34.5 -90t-29 -72.5q-5 -13 -14.5 -35.5t-12.5 -28.5q-4 -4 -2 -8t10 4l54 78l8 8v-8q-4 -6 -16.5 -29.5t-17.5 -31.5l-17.5 -28t-20 -29t-21 -24.5t-25.5 -24t-28 -18.5
t-34 -16q-2 -1 -9 -2t-10 -2q0 6 2 14.5t4 8.5q-3 -1 -12 -1t-12 -2q-42 -26 -95 -26q-64 0 -127 37q-120 73 -165 187t-50 274q-12 334 58 679q14 75 63 254q6 26 27 43q6 5 20 5.5t17 -3.5q8 -13 43 -81l28 26q3 -8 8 -19t7 -16t4 -15t2 -22q11 20 31 33q2 -4 9 -15.5
t10.5 -19.5t2.5 -14q-6 -29 -23 -100t-24 -109q-18 -93 -27 -140t-21.5 -132t-16 -143.5t-3 -133.5t10.5 -143q16 -128 94 -211q29 -34 62.5 -30t48.5 44q3 9 18 50.5t20 55.5t16.5 49.5t17.5 56t13 49.5t11 55q16 97 29.5 201.5t30.5 246.5t24 201q4 39 16 117q0 2 6 14
l8 -8q9 -16 23.5 -49t29 -58t31.5 -43zM508 -70q1 3 4 1l6 -3q-8 -4 -24 -13.5t-26 -14t-17 -4.5q-20 -2 -27 0z" />
    <glyph glyph-name="V" unicode="V" horiz-adv-x="905" 
d="M963 1516q3 -11 0.5 -19.5t-9.5 -25.5t-8 -25q-3 -7 -5 -15.5t-4 -18.5l-3 -15q-29 -71 -49 -140l-123 -417q-52 -166 -70 -219q3 -22 -8 -39h-2q-17 -66 -18 -68q-14 -71 -27 -125l-102 -373q-5 -30 -5 -36q2 -23 -3.5 -33t-28.5 -10q-4 0 -9 -6t-10.5 -14t-9.5 -11
q-38 -47 -59 -62q-27 -12 -50 0q-115 46 -180 193q-48 107 -75 464.5t-1 477.5q12 56 18.5 168t20.5 170q7 42 50 139q5 9 36 14h56q23 3 31.5 -4t7.5 -32q48 -3 51 -5t2 -34q-2 -22 -44.5 -334t-47.5 -406q-7 -155 14 -385q2 -20 14 -68t24 -86.5t13 -37.5q259 820 277 874
q67 206 147 467q5 17 16.5 34t19.5 25.5t28.5 28.5t25.5 25q3 3 9 3t15 -1.5t13 -1.5q-2 -5 -3.5 -13t-2.5 -10q4 2 15.5 10t18 11t16.5 0.5t18 -14.5zM256 952l35 211q0 21 -6 39q0 -1 -2 -3t-2 -3q-8 -79 -33 -238q0 -8 2 -10q0 4 6 4zM225 698q4 4 4 9q2 21 9.5 60
t9.5 58q-17 0 -17 -2q-6 -59 -6 -116q-2 -1 -2 -2.5t1 -3.5t1 -3z" />
    <glyph glyph-name="W" unicode="W" horiz-adv-x="1441" 
d="M264 -174q-79 -34 -143 51q-29 37 -31 64q-7 72 -16 323q-1 3 0.5 6.5t3.5 3.5q4 0 4 -12l6 -45q0 7 1 22.5t1 22.5q17 318 35 551q5 69 17.5 205t17.5 205q1 11 1.5 50.5t6.5 59.5q11 36 57 90q23 23 60 19q15 -3 32 -15.5t17 -21.5q2 -12 8 -22t10.5 -15t14.5 -14
t14 -13l80 -67q24 -24 20 -62.5t-26 -62.5q-10 -11 -19 -23t-18.5 -28t-14.5 -26t-15.5 -31.5t-14.5 -28.5q-14 -39 -21 -90q-1 -28 0 -82t0 -82q-1 -37 -7 -111t-7 -112q-1 -42 8 -189q0 -2 1 -5t1 -5q8 8 8 12q24 71 74.5 212.5t75.5 211.5q28 81 85 231.5t79 210.5
q3 8 7.5 16t8 14t11.5 14l11 11t13.5 11.5t12.5 10t14.5 10.5t13.5 10q23 17 49 17.5t49 -7.5q10 -3 23 -19t16 -30q6 -22 27 -162q20 -129 51 -374.5t35 -274.5q0 -5 3 -16.5t3 -16.5q2 4 12 33l184 610q8 24 31.5 109t40.5 131q16 46 37.5 75.5t60.5 43.5q9 3 16.5 11.5
t17 24.5t12.5 21q38 49 53 72q0 -3 8.5 7t24 31t26.5 33q2 2 5.5 4.5t4.5 3.5q3 -8 0 -14l-69 -170l-5 -17q0 1 2 2q7 6 11 7q8 6 20 18q0 -12 -4 -28q-25 -64 -100 -250q-1 -4 -14 -10v-2q-9 -30 -27.5 -88.5t-29.5 -94.5t-25.5 -87t-24.5 -95q-37 -157 -141 -688
q-4 -21 -10.5 -62.5t-10.5 -62.5q-12 -56 -61 -59q-3 -1 -4 -3q-11 -3 -15.5 -3t-17 2.5t-16.5 3.5h-21q-18 5 -22 10q-3 3 -70 88q-6 12 -6 14l-156 807q-4 22 -7 46.5t-6 55t-5 46.5q0 3 -3 8t-3 8q-9 -9 -9 -12q-7 -19 -48.5 -131.5t-56.5 -155t-43 -124.5t-48 -148
q-11 -35 -19 -78t-15.5 -96t-12.5 -82q1 -1 -4 -11q-8 -52 -21 -110q-3 -13 -11 -45t-12.5 -49.5t-13.5 -42.5t-18 -44q-39 -68 -98 -61q-5 0 -17 -4z" />
    <glyph glyph-name="X" unicode="X" horiz-adv-x="1075" 
d="M207 -135q-42 -37 -103 -18.5t-88 71.5q-21 52 -14.5 88t39.5 80q6 8 6.5 37.5t5.5 38.5q110 219 187 344q17 29 23 44t5.5 39t-14.5 52q-23 45 -47 100.5t-39.5 95t-41.5 107t-38 98.5q-4 11 -14 34t-16 40.5t-9 34.5q-2 32 -2.5 38.5t2 37.5t2.5 37q1 7 16 15.5t23 6.5
q27 -8 41.5 -14t32.5 -22t26 -40q38 -105 181 -471q2 -3 12 -5t12 1q51 56 229.5 259t278.5 309q33 35 73.5 68t96.5 74t80 60q5 5 13 8t18 5t16 4q14 6 21 2t6.5 -12.5t-0.5 -14.5q-3 -13 -15.5 -33t-15.5 -28q-2 -5 -1 -14.5t-1 -14.5q0 -13 -8 -21q-24 -26 -234 -235
q1 -2 17 4q6 2 4 -3q-2 -2 -6 -7l-197 -252q-6 -6 -8.5 -18t0.5 -13l-49 -84v-10q-30 -61 -87.5 -172t-80.5 -156q-2 -3 4 -26l231 -391l4 -7q23 -6 28 -19.5t0.5 -35.5t-3.5 -31q6 -33 -2 -41q-11 -14 -41 -10q-29 10 -50.5 27t-36.5 44t-23 47t-19 56q-2 7 -6.5 14
t-12 14.5t-10.5 12.5q-22 30 -66 86t-65 86q-13 17 -18.5 15.5t-12.5 -17.5q-105 -215 -137 -270q-35 -65 -102 -129z" />
    <glyph glyph-name="Y" unicode="Y" horiz-adv-x="1044" 
d="M1081 1493q51 34 56 37q-27 -27 -43 -51q-38 -44 -97 -123l-8 -17q-32 -57 -43 -73q-44 -64 -94 -129q-12 -23 -21 -35l-16 -29l-24 -47l-23 -35q-5 -11 -15 -30.5t-12 -22.5l-14 -23q-5 -12 -20 -38l-9 -17q-12 -29 -47 -102l-18 -47q-10 -20 -15 -35q-46 -130 -57 -172
q-89 -335 -119 -443l2 -14q-1 -3 -4.5 -22.5t-7.5 -28.5l-6 -25q-1 -7 -5 -21.5t-5 -21.5q-3 -14 -12 -40.5t-11 -34.5l-22 -17q-19 -1 -56.5 -5t-56.5 -5l-7.5 7.5t-8.5 6.5q-23 2 -33 12t-9 20.5t4.5 27.5t2.5 26q0 6 3.5 20t4.5 20t-4 9q-1 -9 -7 -25t-7 -22
q-10 -37 -13 -41q-3 6 -10 18t-11 21.5t-3 16.5q19 108 92 489q7 46 -4 80q-17 59 -66 216.5t-73 244.5q-22 66 -66 252q-3 13 2 67q0 2 4 6l21 -20l6 16l12 15l23 -4h8q4 0 12.5 1t13.5 1t7 -2q39 -72 51 -103q65 -184 90 -268q9 -35 24.5 -100t18.5 -78l8 -21l12 19
q162 416 430 686q26 27 60.5 55t60.5 46.5t70 49t65 45.5q2 2 25 -4l-8 -20q-3 -6 -11.5 -17t-11.5 -16q-3 0 -7 -5.5t-8.5 -13.5t-8.5 -12q-13 -14 -27 -28t-31.5 -31t-27.5 -27l2 -6q4 2 78 62l4 -7q-22 -28 -62 -63l4 -6q12 9 150 119l20 8l-6 -19q-9 -18 -35 -57z
M410 -137l18 65q2 5 8.5 14t7.5 13l-26 -98q0 -1 -1.5 -2t-3.5 -2.5t-3 -2.5v13z" />
    <glyph glyph-name="Z" unicode="Z" horiz-adv-x="1253" 
d="M1124 186q62 -46 72 -168l-2 -12l-12 12q5 -71 8 -88l-39 45q-35 39 -76.5 57t-79.5 17t-82 -4q-8 -1 -20 0.5t-16 1.5q5 2 13 10.5t11 10.5t25 2t26 -2q0 8 -8 8h-35q-19 2 -61.5 -3t-85.5 -11t-51 -7q0 -5 12 -5.5t32.5 1.5t28.5 2h58l18 -10q-22 -5 -106 -12l-197 -19
q-138 -12 -412 -49q-14 -4 -39 -4q6 3 21 8.5t20 7.5q7 7 25 11q-24 0 -27 -2q-18 -5 -61.5 -18t-67.5 -19q-7 -1 -9.5 -0.5t-8 3.5t-6.5 3q0 14 2 20q2 3 5 10.5t6 12.5t7 8q5 3 24.5 3t24.5 9l-49 -6q-22 -3 -38.5 22t-12.5 56q-4 67 6 107q2 9 13.5 20.5t15.5 17.5
q27 36 71 103t82.5 119.5t77.5 89.5q83 86 178.5 177t214 200.5t183.5 171.5q5 7 18 16q-3 0 -11.5 1.5t-10.5 0.5q-91 -12 -262.5 -32t-255.5 -31q-8 0 -27 -6.5t-27 -6.5q-7 0 -13.5 2t-15.5 6.5t-14 6.5l-4 6q9 12 10.5 20.5t-2 13t-10.5 11t-10 10.5q-16 24 -12.5 55
t26.5 43q50 26 125 33q137 14 748 53l57 19q56 11 96 -64q21 -42 12 -87t-51 -79q-57 -48 -188 -137q-167 -115 -328.5 -267t-345.5 -353q-21 -25 -57 -78q-3 -3 -12 -21q4 0 11.5 -4t12.5 -4q210 22 240 23q36 2 171.5 4.5t207.5 9.5q131 12 243 -72zM674 1122q26 2 81 5.5
t83 5.5q11 0 22 22q5 2 14 4t13 4q-88 -11 -201 -14h-24q-7 0 -19 -4l4 -4l29 -4q-1 -1 -5 -3.5t-8 -4.5t-8 -3q15 -5 19 -4zM1061 68q6 -2 17.5 -8t15.5 -7q-5 2 -14.5 10.5t-12.5 10.5q-3 1 -14 4t-17 6q7 -7 25 -16zM356 12q7 2 15 3t11 2l7.5 2.5t9.5 5.5h-20
q-16 0 -36 3q-14 2 -14 -1q0 -1 1 -4l-8 -7q-20 -4 -61.5 -13t-61.5 -13q-3 1 -6 -4zM76 8q2 0 6 -4q47 16 53 19q-2 -1 -29.5 -7.5t-29.5 -7.5z" />
    <glyph glyph-name="backslash" unicode="\" horiz-adv-x="1007" 
d="M821 117q13 -45 32.5 -136.5t31.5 -136.5l-2 -18q-10 -14 -13 -27l-34 43q4 -38 12 -71q0 -1 -1 -3.5t-1 -3.5q-4 4 -12 9t-11 8q-10 20 -10 29q-4 16 -8 24h-4q0 -5 3 -16.5t3 -16.5q1 -2 -4 -16l-4 -14l-6 12v8q-1 10 -5.5 13.5t-12.5 3t-9 -0.5v-22l6 -23h-10
q0 -23 -17 -6q-2 3 -6.5 10.5t-7.5 10.5q-96 161 -194 420q-76 216 -168 497q-16 50 -65 183t-71 208q-24 77 -61 228t-43 174q0 2 -6 26q3 4 6 0.5t6.5 -11t5.5 -9.5q-1 7 -2 13l-1.5 9t-0.5 5h15v4q0 1 -1 3t-1 3l8 2q12 6 28 22l7 -2q8 0 12 4l6 9l10 -6q30 6 33 6
q1 10 16 10.5t19 -2.5l8 18q8 -8 20 -14l2 10l11 -12q-1 2 -2 7t-2 7l12 -8q1 -3 6 -10.5t6 -11.5q6 -17 56.5 -155.5t74.5 -211.5q123 -370 219 -668q55 -176 121 -407z" />
    <glyph glyph-name="underscore" unicode="_" 
d="M1667 -774q-11 10 -30 14.5t-46 6.5t-39 5q-7 2 -22.5 5.5t-22.5 5.5q-4 1 -11 6.5t-11 5.5q-67 2 -199 -2q-11 0 -23 1t-26 2.5t-23 2.5q-156 11 -453.5 30.5t-434.5 28.5l-15 5l23 6v2q-101 -1 -306.5 -9.5t-308.5 -9.5l5 15q59 0 90 2h14l-41 14q-93 -4 -251.5 -16.5
t-229.5 -16.5q-122 -7 -350 -23.5t-269 -19.5q-16 -1 -51.5 -5.5t-54.5 -4.5t-107 10q-4 0 -10 11l12 8v8q-20 4 -29 7t-16 15t-4 33q2 16 -9 46t-13 38q-2 3 4 9t10 6q120 9 330 20q834 36 968 41h203q0 2 16.5 2.5t16.5 1.5q104 -4 299.5 -8.5t348 -10.5t298.5 -18
q116 -8 243 -24.5t289 -41.5t242 -36q37 -6 72 -21q5 -1 11 -12t9 -14l27 -15l23 -20q-8 -8 -9 -8l-41 12q-54 16 -86 18q14 -17 21 -47q3 -12 0 -28l-4 -21q7 -11 -11 -12q-7 -1 -18 0zM-416 -606q14 0 43 5t41 5h103q8 0 16 4l-16 2q-63 0 -181 -4zM434 -602h64v4l-203 6
l-12 -2q2 0 5.5 -1t6.5 -1zM1229 -715l6 6q-27 2 -79.5 5.5t-78.5 5.5q-15 10 -22 10q-89 7 -297 20q-3 0 -9 -1t-8 -1l17 -6q53 -4 168 -14.5t168 -14.5q28 -3 74.5 -6t60.5 -4zM1454 -745q-3 0 -45 6q8 4 19 4.5t24.5 -1t17.5 -1.5q15 -2 15 -4q0 -1 -8 -2.5t-15 -2
t-8 0.5z" />
    <glyph glyph-name="grave" unicode="`" horiz-adv-x="1228" 
d="M705 1407q-14 -4 -26 2.5t-17 17.5q-55 54 -96.5 80.5t-121.5 65.5q-36 14 -116 26q-16 3 -24 5t-18 9.5t-12 20.5q-5 29 33 54q4 3 13.5 9.5t14 10t13 8.5t15 7t16 4t20.5 1.5t23 -2.5q8 -3 37 -10t50 -18.5t38 -34.5q6 -13 35 -27.5t41 -29.5q49 -37 65 -56.5t31 -54.5
q1 -7 10.5 -23.5t7.5 -27.5q-2 -24 -32 -37z" />
    <glyph glyph-name="a" unicode="a" horiz-adv-x="1161" 
d="M74 -350q-12 0 -17 14q-2 17 -4 49.5t-4 48.5v15l-18 -4q-33 -11 -37 -9q-6 3 -11 16t-3 19q7 34 22 116t27.5 141.5t27.5 113.5q59 236 107 346q94 211 289 600q64 129 168 285q11 17 28 33t42 35.5t36 29.5q29 9 84 -12t68 -47q7 -12 24 -29q0 1 4 13.5t8 17.5
q46 78 74 125q4 3 15 3t14 -3q31 -19 41 -62.5t-2 -79.5q-66 -235 -84 -354q-10 -65 -17.5 -137.5t-14 -163t-11.5 -137.5q-1 -23 7 -30t28 -1q24 5 28 4q5 0 17 0.5t19 0.5t16 -1t14.5 -3t7.5 -5q23 -42 23 -102q0 -12 -50 -29q-8 -6 -28 -10q-71 -17 -83 -32.5t-9 -84.5
q2 -43 9 -131t9 -131v-15q-5 5 -9.5 15t-7 18.5t-5 20.5t-3.5 14q-4 -32 -4 -51q-1 -22 -1 -63.5t-1 -63.5q0 -2 -6 -14l-8 12l-55 334q-5 25 -9 98q0 4 2.5 10t7.5 13.5t7 11.5q-127 -37 -250.5 -95.5t-282.5 -146.5q-7 -4 -12.5 -14.5t-8 -19.5t-6 -25t-5.5 -23
q-7 -27 -32 -127.5t-42 -154.5q-3 -12 -10 -25t-17.5 -28t-15.5 -23q-2 -3 -8 -5t-9 -1q-12 4 -16.5 -2t-5 -14t-2.5 -9q-10 -3 -14 -14t-4 -22t-7 -17.5t-24 -1.5zM377 397l16 4h13q184 72 409 156q7 4 12 18q3 145 6 232t14.5 214t31.5 232q1 3 -5 25l-20 -14
q-3 -2 -16 -15l-13 21q-3 -3 -4 -4.5t-2.5 -3.5t-4.5 -5.5t-12 -12.5t-24 -23q4 -26 -3.5 -52t-17.5 -42t-29 -42t-26 -38q-73 -124 -116 -193v-2l-209 -440q-3 -6 0 -15z" />
    <glyph glyph-name="b" unicode="b" horiz-adv-x="1130" 
d="M4 -166l-61 4q-4 0 -7.5 2t-7.5 2q3 2 5.5 7t5.5 6q40 8 67 26q1 0 3.5 2t4.5 2q10 4 32.5 12t37 15t20.5 16q10 7 5.5 51.5t-3.5 55.5q9 102 29.5 286.5t26.5 241.5q37 187 51 248q12 55 72 276q4 16 4 21l-17 -4q-41 -22 -56 -31t-46.5 -29.5t-52 -42.5t-37.5 -49
l-14 -2q0 3 -3 11t-2 10q7 15 -4 26q2 16 2 45q-1 33 7 61.5t20.5 48t35 39.5t40 32t45.5 30t43 29q17 11 51.5 29.5t48.5 27.5q5 3 12.5 14.5t12.5 14.5q9 7 25.5 22t27 24t26 18.5t29.5 13.5q27 8 71.5 0.5t74.5 -25.5q1 -2 0 -4q-1 -3 4 -4q-2 0 -37 -18q0 -6 33.5 -6.5
t72.5 1.5t70 -1q131 -17 189 -150q4 -10 4.5 -27.5t3.5 -25.5q2 -8 11 -25t11 -26q11 -55 -3.5 -112.5t-35 -94.5t-59.5 -94q-14 -22 -72 -84q-5 -5 -8 -11q2 0 6.5 -1t7.5 -1q47 -12 70.5 -19.5t56 -29t52.5 -53.5q-9 -11 0.5 -36.5t29 -58.5t23.5 -44l-15 -31
q-4 -62 -11 -58q-1 0 -1 3q-2 -11 -10 -45.5t-10 -53.5q-35 -262 -338 -364q-31 -11 -68.5 -21t-65 -16t-71.5 -15t-66 -14q-10 -4 -29.5 -15.5t-29.5 -15.5q-6 -2 -14.5 -0.5t-16.5 3.5l-8 2q-14 -8 -21 -9t-12.5 1.5t-9.5 2.5q-78 -12 -119 -12q-27 -2 -75 -2.5t-64 -1.5z
M463 743q241 92 321 318q39 102 8.5 161t-130.5 42l-58 -19q-6 -3 -22 -10.5t-25 -14t-10 -14.5q-39 -154 -103 -446q0 -2 8 -10t11 -7zM428 29q137 22 241.5 124.5t127.5 241.5q17 93 -12.5 137.5t-110.5 53.5q-31 4 -65 -2t-57.5 -14.5t-61.5 -23.5t-58 -22q-6 -3 -6 -16
l-43 -373l-8 -18q-1 -4 -2 -14.5t-2 -14.5q-6 -51 1 -58t56 -1z" />
    <glyph glyph-name="c" unicode="c" horiz-adv-x="1210" 
d="M666 -211q-184 -73 -332 0t-223 244q-149 332 -52 702q119 441 459 721q118 96 291 125q67 13 122 -32.5t75 -114.5q9 -40 8.5 -68.5t-11.5 -62t-22.5 -58t-25 -57t-19.5 -58.5q-5 -25 -21 -57q-3 -4 -8 -7t-12 -6t-10 -5q-1 4 -3 9.5t-3 10t0 8.5q1 11 16 50q2 8 5 23
t5 22q-6 -3 -20.5 -7.5t-20.5 -7.5q-223 -101 -321 -223q-29 -38 -55 -90.5t-38.5 -86t-35.5 -99.5q0 -2 -11 -19q-5 0 -7.5 8t-0.5 13q17 126 111 288q14 24 92 136q6 8 10 24q-16 -10 -18 -14l-94 -127q-5 -7 -9 -1v5q14 29 42.5 84t39.5 78q-35 -39 -114 -191
q-8 -18 -21.5 -52t-21.5 -52q-13 -56 -19 -72q-24 -82 -38 -149.5t-19 -144t8 -151t45 -145.5q9 -22 24 -42.5t42 -49.5t34 -37l6 -6q7 -7 11 -8q19 -5 61 -27q35 -12 69 -14t63 4t59.5 21t56 32t55.5 41q78 65 141.5 146t133.5 192q7 12 16.5 24t21 25t17.5 21l8 -4
q-3 -7 -10 -20.5t-10 -20.5q-1 -3 3 -15.5t7 -17.5q-2 -3 -3.5 -6l-3.5 -7t-3 -7l-6 -23q18 18 28 18q-1 -2 -2 -6t-2 -6q-9 -17 -28.5 -55.5t-34.5 -67t-31 -53.5q-51 -78 -114.5 -144t-159.5 -153q38 21 115 81t112 103q-1 -4 -1 -11.5t-1 -13t-4 -9.5q-68 -98 -163 -161
t-230 -116zM414 944q8 4 10 6q63 125 115 201q7 7 30 30.5t29.5 29.5t25.5 24t29 26.5t27 23t33 26t35 24.5q69 48 90 66q10 10 7 10q-1 0 -5 -2q-6 -2 -9 -2q-8 -6 -32.5 -16.5t-34.5 -18.5q-8 -7 -33 -21t-35 -24q-64 -53 -87.5 -73t-58 -55t-54.5 -66q-38 -58 -82 -177
v-12zM672 1167q8 0 12 4l184 144q-29 -8 -59 -26t-44.5 -30t-48.5 -44t-42 -39q-1 -1 -1 -4.5t-1 -4.5z" />
    <glyph glyph-name="d" unicode="d" horiz-adv-x="1165" 
d="M1102 881q38 -236 -49 -422q-7 -16 -17 -33.5t-23 -38.5t-20 -33l-6 -10l-10 -10l-21 -41l-28 -27l-37 -51q-102 -122 -234 -199q-137 -95 -239 -108q-6 -1 -30.5 -3t-39.5 -7q-189 -5 -227 -4q-8 0 -19 17.5t-10 29.5q2 6 9 13t18 15t16 13q1 2 5 6t6 7t1 5
q-33 87 -43.5 189.5t-6 184t19.5 195.5q6 56 16.5 122.5t18.5 110t23.5 126t21.5 114.5v21q-18 -6 -21 -8q-21 -11 -28 -12.5t-12 3.5t-15 25q-9 8 -10.5 11.5t3 8t19.5 15.5q6 4 14 12q-3 -1 -8.5 -2t-7.5 -2q-8 -2 -24.5 -7t-24.5 -7q22 26 29 37q2 2 6 10q-4 2 -11 2
q-10 2 -30 2q11 11 26 20q6 4 -5 3q-3 -1 -21 -5q-2 0 -17 15q-18 -5 -69 -21q38 37 51 45q218 128 424 144q390 35 590 -289q14 -24 24.5 -59.5t13.5 -56t9 -66.5zM836 537q1 16 5.5 105t3.5 105.5t-3 104.5q-9 135 -100 226.5t-236 92.5h-7q-18 0 -27 -0.5t-23 -4.5
t-22.5 -14t-12.5 -26q-24 -102 -45 -204q-30 -155 -35 -213q-7 -77 -16.5 -221.5t-12.5 -180.5q0 -4 -6.5 -15.5t-15 -23t-9.5 -14.5t-4 -12.5t-2 -16.5l8 -12q2 6 12 16t11 15h6q-4 -33 -1.5 -60t-2.5 -61t-22 -60q-1 -2 -13 -23l-22 -38.5t-13 -19.5q4 -1 11.5 -3t11 -2
h10.5q8 0 22.5 3t18.5 4q8 4 10 6l-10 10q-40 -10 -37 -2q2 4 13 10q11 3 20.5 8.5t15.5 8.5l267 122q11 7 16 9q26 13 47 30t40.5 43t29.5 41.5t30.5 52t26.5 46.5q16 28 39 93.5t23 74.5z" />
    <glyph glyph-name="e" unicode="e" horiz-adv-x="1239" 
d="M297 -154q-47 -8 -91.5 11.5t-75 55.5t-49.5 79t-20 82q0 46 20.5 64t70.5 14q4 -1 13.5 -1t14.5 -1q-12 16 -12 26l-25 172q-26 146 -32 172q-9 39 12 74t57 41q12 0 17 14l122 430q1 2 1.5 6.5t1.5 6.5q-59 -20 -80 -35q-70 -54 -113 18q-56 96 -20 174q13 23 49 27
q54 10 231 33q8 0 23 10q66 47 155 16q11 -5 24.5 -6.5t36 -0.5t27.5 1q46 1 189.5 4.5t220.5 3.5q13 0 27.5 -8t17.5 -18q9 -22 18 -90q0 -4 -26 -9q-41 -2 -122.5 -5t-121.5 -5q-2 0 -6.5 -2t-7.5 -2q12 -6 14 -6q30 1 89 4t87 4h10l-2 -16q-25 -1 -105 -4t-122 -6
q-16 -2 -87 -9.5t-110 -13.5q-78 -11 -108 -109q-14 -48 -42.5 -163.5t-47.5 -176.5l-12 -2l10 84v13q-1 -3 -3.5 -6.5t-2.5 -4.5q-5 -18 -13.5 -55t-13.5 -55q-6 -17 0 -23t23 -6l413 6q76 -5 97 -10q11 -3 16.5 -6t11.5 -14t-2 -29q-7 -36 -26 -47.5t-50.5 -11t-42.5 -3.5
q-26 -8 -55 -13.5t-69 -10.5t-58 -8q-3 -2 -3 -5t3 -3q4 0 48 5.5t67 6.5v-10q-29 -6 -84 -11.5t-80 -9.5q-106 -21 -209 -33q-57 -10 -57 -75q0 -30 1 -63.5t2.5 -74t2.5 -63.5l-21 2l-34 37q-7 -13 -5 -15q2 -3 11.5 -18t16.5 -21.5t13 -5.5q71 0 253.5 2.5t281.5 1.5
q79 -3 324 -26q5 0 10.5 -4t12 -11t9.5 -10q-3 -3 -7 -9.5t-8.5 -11t-8.5 -5.5q-103 -49 -176 -68q-61 -11 -277 -39q-6 -1 -8.5 -3t-5 -6.5t-8.5 -8.5q-5 0 -5 -6l13 2q62 6 163 22t140 21l14 -13q-8 -8 -14 -10q-425 -62 -721 -115zM193 1120q113 34 137 39q1 1 14 6
l-16 6l-138 -34q-2 -1 -4.5 -7.5t-3.5 -7.5q4 -2 11 -2zM299 -53l453 47l8 2q-2 2 -8 2l-131 -4q-60 -7 -172.5 -22.5t-149.5 -20.5v-4zM336 -123q52 6 160 23.5t153 23.5q-3 14 -14 19q-6 0 -7.5 9.5t1.5 10.5q-2 0 -6.5 1t-6.5 1l-43 -6q-6 0 -34 -4q5 -3 15.5 -6t16.5 -6
q0 -1 1 -3t1 -3q-2 0 -7 -5.5t-7 -5.5q-39 -8 -112 -20.5t-111 -20.5v-8zM358 -88q27 1 107 16q7 0 20 9q-3 -1 -11 0.5t-11 1.5q-23 0 -55 -7q-2 0 -4 3t-1 4l11 6l-88 -11q-9 -2 -21 -14q1 1 2 -0.5t2 -1.5q24 -6 49 -6z" />
    <glyph glyph-name="f" unicode="f" horiz-adv-x="1161" 
d="M254 -186q-5 3 -18 10t-20 11.5t-7 8.5q0 48 7.5 139t8.5 132q0 8 -6 2q-15 -15 -18 -92q-2 -10 -9 -39t-8 -45q0 -2 -16 -2q-1 11 2.5 29.5t3.5 25.5q4 66 11.5 193t11.5 186q0 1 -3 4.5t-4 5.5q-1 -1 -4.5 -5.5t-3.5 -6.5l-12 -156q0 -4 0.5 -16t0.5 -18.5t-2 -15
t-5 -13.5q-18 -111 -39 -189l-12 8l6 193q2 35 7 107t7 110q0 3 -2 10t-2 10q-1 6 -8 23t-4 27t22 14q2 0 2 8q-18 19 -21 37.5t2 32t19 35.5q7 14 12.5 33t8 29.5t7 38.5t5.5 32q20 108 39 229q0 5 -1 15.5t-1 15.5q-3 -2 -11.5 -5t-14 -6.5t-7.5 -7.5q-4 -11 -7 -14t-5 -2
t-6.5 8t-7.5 10q-6 9 -27 4q-5 -1 -12 -8.5t-9 -9.5q-2 4 -8 12.5t-9.5 15.5t-2.5 11q13 61 -10 106q-4 7 2.5 21.5t15.5 23.5q10 11 16 19t10.5 19t3 23t-8.5 26q-5 15 -6.5 23.5t5 16.5t12.5 12t15 9.5t13 9.5q7 6 23 18.5t24.5 20t18 21t13.5 28.5q8 25 46.5 36t58.5 -7
q28 -24 58.5 -27t58.5 8q373 96 690 175q7 1 33.5 -0.5t29.5 4.5q38 23 70 -9q21 -21 61 -71q7 -7 19 -23q-8 -5 -23.5 -16t-23.5 -16l-92 -66l-13 6h-4l-4 -4l-82 -174l-8 -6l-37 -96l-6 -13q-2 4 -2 13t1 26t1 25q-5 -19 -16 -49q-12 -32 -21 -50l-8 -2q-8 8 -8 17
q0 25 4 71q0 62 -2 93v24l-17 -12l-34 -49q-7 7 -7 8q-2 -1 -8 -17.5t-14 -21.5q1 15 4 44t4 44v19q-7 0 -16 -3l-406 -147q-2 -1 -2 -7.5t-2 -8.5q10 0 14 2l211 67q10 3 31 8.5t31 8.5l6 -11l-221 -75q-86 -31 -111 -56q-8 -8 -14 -21t-8 -23.5t-5.5 -29t-5.5 -26.5
l-49 -260q-3 -19 1.5 -25t23.5 0q38 10 307 76q24 7 88 19q2 0 7.5 -1.5t8.5 -1.5l-10 -16q-3 -2 -8 -7t-8 -7q18 -11 33 -8q77 11 79 12l9 -4l-6 -8q-8 -3 -22.5 -9t-23.5 -10l-10 -10q0 -8 15 -8l16 -4q-1 -2 -5.5 -8t-6.5 -7q-12 -5 -37 -18.5t-39 -18.5
q-264 -106 -440 -180q-8 -3 -14.5 -14t-8.5 -23l-55 -381q-4 -30 -11.5 -90.5t-11.5 -89.5q0 -2 -10 -22zM137 1047l322 98q5 3 8 8l-14 14l-314 -110zM227 608q2 3 8 10t7 11l26 143q6 37 16.5 107t16.5 104l-4 4l-6 -16q-12 -56 -33.5 -168.5t-32.5 -169.5q0 -4 1 -12.5
t1 -12.5zM260 612q19 19 25 29q1 1 9.5 13t8.5 18l6 65l-8 2l-12 -57q-2 -4 -5 -8.5t-7 -9.5t-5 -7l4 23q0 1 5.5 18t3.5 25l6 37l10 35q2 8 3 25.5t3 25.5l-10 -2l-10 -45l-8 -43q-16 -77 -21 -109q-1 -6 0.5 -18.5t1.5 -16.5z" />
    <glyph glyph-name="g" unicode="g" horiz-adv-x="1372" 
d="M938 -293q-44 15 -64.5 49.5t-33.5 89.5q-14 83 -19 140l-6 14l-12 -6q-106 -106 -297 -137q-56 -14 -120.5 -13.5t-117.5 25.5q-155 75 -196 231q-49 180 -52 330q-5 312 220 657q188 289 442 447q123 74 289 74q61 0 101.5 -50t45.5 -116q4 -43 -9 -85.5t-31.5 -71
t-45 -68t-39.5 -66.5q-4 -9 -11 -17t-18 -18t-16 -16l17 65q4 10 14 31t14 31q-36 -14 -63 -19q-312 -79 -451 -352q-4 -7 -17.5 -42.5t-21.5 -47.5l-12 10q63 172 172 320q88 113 274 260q6 5 12 16t9 14l-31 -18q-63 -31 -118.5 -75t-100 -97.5t-75.5 -99t-64 -101.5
q-2 -5 -17 -20t-16 -17q18 36 41.5 74.5t37 58.5t48 68t43.5 62q6 9 23 24t24 23q69 63 114 98.5t101 63.5q14 9 39 38q-6 -3 -17 -6.5t-19.5 -7t-14.5 -8.5q-16 -11 -59.5 -33t-65.5 -39q-17 -12 -46.5 -41.5t-43.5 -40.5q-127 -127 -203 -260q-25 -42 -46 -94t-46 -126
t-35 -101q-11 -27 -16 -83.5t-6 -64.5q0 -2 5.5 -5.5t6.5 -2.5l985 514q26 10 82 2q44 -3 84 -14q2 -1 7.5 -7t8.5 -8q-3 -2 -9 -4.5t-7 -3.5q-24 -46 -45 -90l16 -6q9 -2 20 -2l3 -1q0 -1 -6 -4q-7 -4 -13 -7q-225 -97 -299 -133q-9 -3 -15.5 -20t-4.5 -28q10 -41 -8 -84
q-10 -21 -19 -48.5t-13.5 -46t-12.5 -53t-11 -48.5q-27 -122 -27 -280.5t11 -282.5l-2 -21q-11 17 -12 19l-17 122l-4 19q-2 -37 -2 -164q0 -19 -24 -29l22 -20q7 -7 27 -19q-8 -2 -15.5 -3.5t-12.5 -2l-5 -0.5q10 -19 1 -21.5t-21.5 -6.5t-8.5 -15l4 -8t2.5 -5.5t2.5 -4
t5.5 -4.5l10.5 -6q-5 -2 -16.5 -4.5t-16.5 -4.5q-5 -1 -16.5 -5.5t-19 -7t-9.5 -1.5zM784 1235l193 113q1 0 1 3t-1 3q-2 1 -27 6q21 12 27 14l29 10q3 3 8 13l-15 2l-38 -17q-4 -1 -12.5 -4t-12.5 -4l18 19l68 63q3 3 8 23q-15 -10 -20 -15q-8 -8 -23.5 -24t-28.5 -29.5
t-26 -24.5q-29 -29 -85.5 -82t-66.5 -63zM584 82q63 24 105 53.5t65 77.5q56 110 84 209q8 35 14 75t12 91t10 78v7t-7.5 5t-24.5 2l-31 -12q-18 -18 -20 -19l-306 -182q-27 -17 -43.5 -25t-46 -14t-51.5 4q-13 2 -31 21q0 -3 -1 -9.5t-1 -9.5q-1 -59 -0.5 -107t17.5 -96.5
t53 -89.5q-1 -19 13.5 -30t33.5 -11l31 -10l37 -2q11 -1 31 -4.5t29.5 -4t27.5 2.5zM672 -33q-10 -7 -3 -11q21 -8 138 74q1 0 2 1q6 4 6 16q1 11 -6 13.5t-14.5 -1t-8.5 -6.5z" />
    <glyph glyph-name="h" unicode="h" horiz-adv-x="1112" 
d="M762 -285q-22 33 -27 37q-1 1 1.5 8.5t1.5 8.5t-13 -5q-9 18 -10 21q-1 25 0 54.5t3 65t3 54.5q1 35 6 110.5t6 110t-2 111.5l-2 18l-6 -18q-12 -137 -16 -193q-13 -219 -15 -297q0 -2 -2.5 -5.5t-3.5 -4.5q-6 18 -6 19q-3 142 14 335q14 191 29 330q0 4 0.5 11.5t0.5 14
t-1 11.5q-29 -12 -33 -14q-33 -13 -116 -50.5t-130 -54.5q-40 -14 -51.5 -39t-11.5 -69q0 -21 2 -59t2 -56q6 -196 6 -197q2 -20 12 -57t13 -55q9 -80 -74 -109h-4q-6 1 -21 2.5t-24 3.5t-10 6q-2 11 3 33.5t5 32.5q2 16 -2 49q-2 0 -7 -1t-6 -1q-8 -55 -14 -84q0 -1 -6 -31
q-4 2 -19 8.5t-18 12.5q-21 43 -28 94t-8.5 114.5t-6.5 96.5q-2 26 -2.5 73t-1.5 62q0 3 -2.5 8t-5.5 5q-14 3 -42 5t-42 5q-33 6 -61 53.5t-17 75.5q3 7 9 31.5t12 35.5q28 36 51 52q44 28 80 36q44 15 41 68q-3 72 -3 116t8.5 115.5t15 114.5t18.5 114.5t18 115.5
q21 132 63 301q13 50 54 36q8 -3 19 14.5t11 26.5q5 -3 16.5 -6t14.5 -6q10 -8 10 -29q-1 -7 -5.5 -26t-4.5 -29q0 -13 12 -37h7q-1 4 -1 10t0.5 13.5t0.5 11.5l6 12q0 9 4 17l14 51q4 -4 16 -13t18.5 -16.5t6.5 -13.5q2 -29 -10.5 -79t-14.5 -66q-3 -17 -1.5 -61.5
t-4.5 -61.5v-9q4 4 4 9q12 53 27 102q3 9 8 14q6 -12 6 -16q-3 -24 -12 -107t-16 -129q-14 -70 -41.5 -208t-40.5 -207q0 -3 8.5 -9t11.5 -6q167 62 328 127q14 3 14 31q37 297 56 432q9 58 30 162t27 139q12 61 14 66q12 37 33 4l18 -12q0 7 7 18q1 1 3.5 5t4 6t4.5 5.5
t4.5 6t4 5.5t4.5 5t4 3.5t4 2t3 0.5q4 -1 15.5 -4t17 -5.5t13 -7.5t11 -15t3.5 -25q-2 -97 -43 -271.5t-47 -208.5q-17 -118 -53 -284v-17q5 10 10 15q8 0 18.5 -5t50.5 -8q6 -1 52 -18q-5 -8 -13 -12l-2 -19q13 -9 14 -16.5t-5 -12.5t-12.5 -12.5t-6.5 -13.5q0 -3 -3 -6.5
t-8 -8.5t-7 -8l34 5q13 0 19 2q-37 -20 -111 -66h-4q-3 0 -17 -9.5t-18 -13.5q-3 -9 -10.5 -25.5t-12.5 -30t-7 -25.5l-68 -730q-2 -19 -10 -67q-1 -3 -4.5 -5t-9.5 -4l-9 -3q-10 -5 -14 -9q-1 0 -1 -1.5t-1 -2.5z" />
    <glyph glyph-name="i" unicode="i" horiz-adv-x="649" 
d="M358 -268q-19 9 -28 28q-4 9 -7.5 12.5t-6 1t-3.5 -11.5q0 -4 -2.5 -8t-7 -9t-6.5 -7q-3 2 -11.5 7t-13.5 9.5t-6 9.5q-4 19 -12 23t-25 -2q-38 -13 -64 5t-34 58q-26 134 -28 307.5t6 309.5q16 531 133 952q3 9 10.5 18t19 19.5t15.5 15.5q7 7 12 21q22 50 39 80
q2 4 6.5 6.5t12 5.5t8.5 4h38q12 16 19 23q13 -22 24 0l9 16q23 -15 37 -20q15 -5 16 -7q3 -4 9.5 -11.5t10.5 -12.5t7 -11t2 -10q-2 -30 -13 -85t-14 -72q-6 -44 -14.5 -132t-14.5 -132q0 -4 -5.5 -12t-6.5 -11q0 4 -1 12.5t-1 12.5q8 116 4 172h-4q-12 -116 -29 -424
q-3 -36 -18 -443q-5 4 -10 4q0 -138 -2 -208q-5 -260 -5 -316q0 -12 3 -41.5t2 -44.5q-4 -36 -23 -90q-1 -4 -11.5 -9t-15.5 -3zM203 748v6q41 262 41 264q2 21 22.5 172.5t26.5 230.5l-6 -2q-6 -30 -21.5 -99t-21.5 -106l-21 -120l-26 -252h4v-88q0 -2 2 -6zM350 287
q0 -3 4 -3t4 3l35 573l2 49l4 64l11 284v15l-7 -8q-34 -257 -38 -490l-9 -192h-6v-295z" />
    <glyph glyph-name="j" unicode="j" horiz-adv-x="1046" 
d="M330 -131q-153 -45 -326 22q-3 2 -6.5 10.5t-7.5 10.5q-4 5 -20 12.5t-24.5 14t-0.5 12.5q46 -23 61 -27l10 6q-40 19 -77 43q-3 2 -4.5 6t-3.5 11t-3 10q3 -1 11 0t12 0q105 -36 217.5 8.5t159.5 130.5q5 13 29.5 88.5t33.5 112.5q79 283 96 682q4 108 2 158v7v8.5t-1 9
t-2.5 7.5t-5 6t-9 3t-12.5 -2q-26 -5 -86.5 -17.5t-106 -21.5t-47.5 -9q-15 0 -22 11q-34 49 -25 91.5t61 59.5q54 19 157 49t138 41q37 13 62 33q12 9 24.5 10.5t22 -1.5t24.5 -8t25 -7q19 -2 57 4t56 6q9 1 31.5 3t35.5 2.5t32 1t35.5 -1.5t31.5 -7q12 -2 25 -11t22 -18.5
t23.5 -25.5t21.5 -23q4 -4 28 -32q11 -17 14 -27t-6 -15t-15 -6.5t-25 -3.5q-125 -3 -289 -16q-9 -2 -21.5 -17.5t-11.5 -25.5q19 -294 -18 -623q-36 -335 -140 -536q-13 -23 -32 -45.5t-45.5 -50t-38.5 -41.5zM233 -129q4 -1 7 1l4 3q-4 4 -11 4q-85 12 -167 21q-4 1 -12 2
t-11 2q9 -6 23 -13q51 -10 75 -16q22 0 92 -4z" />
    <glyph glyph-name="k" unicode="k" horiz-adv-x="1320" 
d="M166 -287q-11 12 -37.5 37t-43 45t-24.5 41q-6 14 -10 31.5t-6.5 30t-4.5 35.5t-3 32t-2.5 37t-1.5 33q-5 127 15 255.5t61 289.5q109 435 309 847q51 104 80 146q29 53 90 37q11 -3 40 -6.5t44 -10.5q24 -11 47 -49q15 -20 16 -47.5t-3 -41t-15 -44.5
q-28 -79 -89.5 -223.5t-70.5 -167.5q-31 -81 -119 -326q-2 -6 -2 -20q11 11 13 14q345 472 714 830q53 53 68 65q25 21 51 33q3 1 7.5 -1.5t11 -6.5t10.5 -6q5 -2 12 0t12 4.5t6 1.5q32 -14 50 -27q1 0 1.5 -3t-0.5 -6.5t-3 -4.5l-4.5 -4.5l-4.5 -4.5t-4 -4.5t-4 -5t-3 -5
t-2 -5.5t-0.5 -5.5t0.5 -7t2 -7.5t3 -9q4 -12 -2.5 -34t-17.5 -33q-34 -29 -129 -100t-142 -115q-129 -124 -270 -281q-31 -34 -25 -43q1 -3 5 -3t10 3.5t12 9.5q24 28 58.5 63.5t50.5 53.5q62 71 90 80q-94 -121 -99 -127q-58 -72 -176.5 -208.5t-171.5 -201.5
q-24 -30 6 -53q33 -27 277 -226t371 -304q49 -39 57 -60q18 -45 6 -86q-3 -12 -19.5 -25.5t-29.5 -13.5q-7 -1 -16 2.5t-15.5 7.5t-17 11t-15.5 10q-313 173 -378 211q-68 40 -406 250q-20 12 -43 1.5t-29 -36.5q-30 -132 -61 -309q-3 -20 -8 -19q-8 3 -8 46q0 6 -3 12
q0 -2 -11 -7.5t-11 -7.5q-1 -10 -5.5 -25t-4.5 -22q-1 -31 2 -75t2 -64q0 -10 3.5 -28.5t4.5 -24.5l6 -25q-31 22 -53 0z" />
    <glyph glyph-name="l" unicode="l" horiz-adv-x="1114" 
d="M176 -209q-61 -1 -120 56t-64 118q-5 32 -1 68.5t25 62.5q12 12 26 18.5t27.5 7.5t28.5 1h29q6 0 12 4.5t6 9.5q-2 71 2 139t18.5 147.5t23 121t33 139.5t30.5 123q47 220 125 510q7 28 18 57t26.5 66.5t22.5 54.5q3 3 0 10q0 -1 -3 -2t-6.5 -2.5t-4.5 -3.5
q-47 -99 -74 -184q-2 4 -12 4q8 25 23.5 82t25.5 86q36 83 131 61q13 -3 35 -2.5t35 -1.5q50 -12 80 -86q37 -99 -6 -213q-92 -268 -131 -438q-20 -92 -39.5 -196.5t-42 -235t-35.5 -199.5q0 -6 -1 -17t-1 -18q0 -3 2.5 -12.5t3.5 -13.5q2 2 5.5 4t6.5 3.5t5.5 4.5t2.5 6
q3 36 14.5 100.5t14.5 85.5q4 32 47 291q0 2 2 6.5t2 6.5q2 -3 3 -6t1.5 -7t1.5 -6q-6 -36 -43 -342l-6 -86q1 -12 2 -25t0.5 -18.5t2 -11.5t3.5 -7.5t9 -3.5t14.5 -2h22.5q75 1 213 6.5t163 6.5q42 3 84 0v-13q-11 -9 -30.5 -15t-32.5 -14.5t-17 -27.5q13 1 36.5 2.5
t42.5 2.5t36 1q1 1 2.5 -0.5t4.5 -4t5 -3.5l-34 -59q-2 -3 -5 -8.5t-5.5 -8.5t-6.5 -4q-35 -15 -86 -26q-53 -18 -68 -32q-3 -2 -1 -3h-2q-151 -42 -222 -64q-158 -51 -436 -51zM172 668q0 2 -1.5 11t-0.5 15q19 93 68 263.5t65 234.5q1 4 7 9t7 9q-25 -99 -57 -229
q-4 -17 -27.5 -120t-44.5 -173q-1 -5 -16 -20z" />
    <glyph glyph-name="m" unicode="m" horiz-adv-x="1343" 
d="M1219 -244q-3 3 -7 11l-34 92q0 11 -4.5 44t-4.5 36q-40 387 -45 462q-10 176 -1.5 423t32.5 444q-2 -13 -13 -38.5t-12 -39.5q-75 -550 0 -1100q24 -149 33 -233q2 -13 13.5 -40t13.5 -42q1 -2 -0.5 -8t-1.5 -7q-9 3 -17 11q-2 2 -9.5 7l-10.5 7t-9.5 7t-10.5 8.5t-9 8
t-9 9.5t-7 10q-23 26 -29 66q-84 545 -47 1161q0 6 -4 18l-6 -14q-51 -175 -82 -295q-7 -28 -20 -94l-19 -121q-33 -140 -78 -344q-4 -12 -4 -19q9 -112 -96 -157q-13 1 -18.5 -0.5t-17 3.5t-16 6.5t-14.5 9l-14 10.5t-13.5 11t-13.5 11q-14 11 -22 39q-66 237 -90 567
q-3 54 -13.5 153.5t-13.5 135.5q0 2 -4 10l-6 -14q-64 -238 -78 -299q-27 -134 -73.5 -382t-59.5 -315q-3 -13 -47 -153q-1 -3 -3 -5.5t-5 -6t-4 -5.5l-3 6t-3 7.5t-1 7.5l27 213v20q-11 -17 -12 -20l-47 -193q-3 -7 -11 -18t-10 -14q-16 23 -26 30q-8 -8 -9 -10
q-2 -12 -16 -70q-4 -8 -6.5 -10.5t-4 -0.5t-2.5 6t-1 8q9 21 3.5 38.5t-34.5 20.5q-2 0 -3 7t-2 17.5t-3 16.5l-6 27q-31 -23 -31 -25q-4 12 -4 16q10 88 10 109q1 15 -3 50.5t-1 53.5q6 31 14.5 65.5t20.5 78.5t18 65q9 38 48.5 214t62.5 270q98 387 133 514q2 12 7.5 25
t9.5 20.5t14 23t12 19.5q1 4 10.5 6.5t19.5 3.5t11 2q32 25 57 61q26 30 64 32t71 -9q12 0 24 -7t11 -20q-1 -8 -5 -41t-3 -51q-1 -17 5 -49.5t5 -48.5q1 -52 1 -157t1 -157l29 -426q0 -11 4.5 -32t5.5 -31q15 38 19 57q14 47 87 288t115 368q17 59 63 165.5t52 120.5
q11 33 18 50.5t25 39.5t43 33q17 8 37.5 11.5t34.5 -3.5q11 -9 37 -16t43.5 -19t21.5 -36v-10q-16 -10 -18.5 -20t3.5 -17t13 -17t8 -18q7 -56 -14 -105q-19 -45 -32.5 -97t-21 -89t-12.5 -102.5t-6.5 -91t-3.5 -104.5t-2 -95q-8 -140 4 -420q3 -54 35 -424q2 -26 12 -76
t13 -73q2 -5 -2 -13z" />
    <glyph glyph-name="n" unicode="n" horiz-adv-x="1245" 
d="M55 -211q-19 -12 -44.5 24t-20.5 66q101 564 141 754q15 66 36.5 145.5t36.5 129.5t45 149t40 133q23 64 18 113q-1 10 10 32t11 33q0 7 2 12.5t3 9t5.5 5.5t6 3t8 0.5t8 -0.5t9.5 -1.5t9 -1.5t2 5t3 10.5t5 6.5q36 4 60 4q-3 -19 0 -41q1 -10 1.5 -42.5t2.5 -51.5
q2 -15 5 -42.5t6 -50t7 -42.5q11 -100 29 -170q21 -91 125 -473q5 -13 10 -19l14 3l4 22q112 458 142 578q4 15 17 41.5t17 37.5q17 58 248 467q3 4 19 15l-80 -160q-8 -23 -10 -41l45 76q-4 -9 -13 -36t-16 -42q0 -3 6 -4q8 14 25 48.5t28 53.5q6 10 16 20t23.5 21.5
t20.5 18.5l6 6q8 30 19.5 34t33.5 -24q2 2 5.5 4t5.5 3.5t3 4t0 6.5q8 -2 72 -24q-11 0 -16 -7t-4.5 -16.5t-2 -20t-8.5 -15.5q-5 -4 0 -27l5 -23q-4 -16 -14 -45.5t-13 -40.5h-2l-2 2l-64 -112l-73 -180l-15 -39q-5 -20 -22 -75t-23 -85q-26 -180 -28 -252q-6 -187 6 -377
q3 -55 19.5 -157t19.5 -128q2 -20 -17 -47q-1 -2 -6 0t-14 6t-13 5q-2 -4 -0.5 -12.5t2 -14t-4.5 -9t-19 2.5q-6 -6 -6 -14q-14 -19 -42.5 -61.5t-45.5 -63.5q-5 -5 -16 -7.5t-19 0.5q-8 4 -27 12.5t-29.5 13.5t-24.5 14.5t-24 19.5q-11 10 -18.5 24.5t-17 41t-11.5 32.5
q-95 259 -125 350q-93 287 -163 512l-27 101q-1 3 -5 8t-5 6l-6 -14q-120 -485 -162 -672q-13 -57 -38 -188t-42 -201q-7 -38 -68 -76zM641 561q-12 12 -12 14q-59 182 -90 293q-11 42 -20 90t-18.5 105.5t-15.5 89.5q-2 15 -12 92t-14 119q0 1 6 31q1 -3 7 -14t7 -17
q5 -34 21 -140.5t26 -164.5q14 -65 46 -197.5t46 -197.5l21 -86zM295 807q0 3 2.5 9t3.5 7l12 45l31 121l-10 27q-8 -8 -8 -12l-33 -181q-1 -2 0.5 -8.5t1.5 -7.5z" />
    <glyph glyph-name="o" unicode="o" horiz-adv-x="974" 
d="M406 -131q-17 -2 -25 -1.5t-26 3.5t-29 4q-15 -1 -29.5 1.5t-25 5t-24 10.5t-20 12t-20 16.5t-17 16.5t-18 19t-16.5 17q-43 45 -70 98.5t-39 114.5t-15 113.5t-1 122.5q3 450 241 893q5 10 16.5 35t18 38t18 32.5t23.5 33.5q17 23 27.5 35t33.5 23t50 8
q155 -15 258 -121q87 -87 125.5 -198t48.5 -253q4 -69 -1.5 -199.5t-4.5 -181.5q0 -53 -10.5 -116t-17.5 -93.5t-31.5 -112.5t-26.5 -89q-3 -8 -10.5 -17.5t-16.5 -18.5l-16.5 -16.5t-14.5 -14t-8 -7.5q35 47 49 74q24 76 52 209q2 5 -3 14q-4 -4 -4 -12q-12 -30 -33 -91
t-32 -90q-21 -15 -41 -20q-6 2 -10 24l-33 -36h33q6 -4 6 -23q17 17 20 21q19 23 27 30l16 11q0 -11 -4 -19q-12 -16 -35.5 -50.5t-42.5 -60t-39 -45.5q-118 -125 -253 -149zM317 113q3 -1 30 1.5t59.5 10.5t42.5 18q49 49 81 140q18 47 31.5 101t21.5 94t15 105.5t9.5 96
t7 106.5t6.5 99q5 81 -32 192t-75 123v-7.5t1.5 -4.5t2 -3t5 -3.5t7.5 -5.5q-18 -9 -28 -15q-10 -7 -19 -20q-104 -222 -125 -279q-10 -27 -20 -60.5t-16 -58t-15 -63.5t-14 -59q-2 -7 -7 -20.5t-7 -20.5l-7 45v12q-3 -3 -6 -12q0 -97 -8 -273q0 -1 -1 -5q-2 -11 -7 1
q0 7 -6 191q-4 76 -2 116l-2 7l-23 -21v35q0 4 3 33t6 55.5t5 38.5l7 57q-2 -7 -8 -25t-7 -28q-19 -119 -26.5 -199t0 -186t39.5 -193q0 -3 -3 -6q45 -79 84 -110zM868 801q0 3 2 10.5t2 9.5q11 124 -30 264q16 -139 22 -268q0 -3 2 -8t2 -8zM178 885q4 4 12 24t19.5 53.5
t15.5 43.5v10q-4 -4 -4 -6q-30 -70 -33 -86zM825 575q14 7 25 68v51l-12 -53q-9 -54 -13 -66zM227 352q-3 2 -5.5 5t-3.5 7t-1.5 6.5t-1 9.5t-0.5 11q-5 34 2 174l10 72v-285zM766 346q2 2 6 10q25 45 25 107q0 7 -3 9q-2 -1 -3 -3q-5 -18 -13.5 -55t-13.5 -56q0 -10 2 -12z
M709 211q15 0 20 14q2 8 9.5 30.5t11.5 35.5l10 26l-4 -2l-15 -34q-4 -7 -16 -25.5t-18 -28.5q-3 -6 2 -16z" />
    <glyph glyph-name="p" unicode="p" horiz-adv-x="1488" 
d="M1468 954q9 -195 -118 -346q-12 -16 -41.5 -39t-34.5 -28q-18 -16 -51 -49q-8 -8 8 -29q-4 -1 -19 -10t-24 -13l-14 4q-16 -7 -81 -50t-89 -50q1 4 4 10q6 12 -2 13t-45 -5q-3 0 -122.5 -36.5t-131.5 -42.5q-40 -14 -51.5 -36.5t-16.5 -80.5q-8 -126 -35 -289v-13.5
t-0.5 -16.5t-4 -15t-12 -8.5t-24.5 2.5l-4 -10q-3 -12 -5 -14t-11 1q-3 1 -10.5 0t-8.5 0q-3 7 -7 19.5t-5 15.5l-8 6q-2 -2 -15 -11.5t-18.5 -16t-5.5 -11.5q0 -18 2.5 -35.5t7 -42t6.5 -34.5q0 -2 1 -6t1 -6q-16 15 -27.5 28t-26.5 32.5t-17 22.5l-6 7l-3 -25l-20 10
q-66 68 -88 211q-7 41 -11 86t-5.5 80t1.5 87t4 79.5t8.5 87t10 79t12 86.5t11.5 81q7 47 19.5 121t21 125.5t8.5 62.5q-3 -2 -11.5 -5t-11.5 -5q-13 -9 -70 -48t-87 -61q-6 -3 -10 -8.5t-5.5 -10.5t-5.5 -18t-6 -20l-41 -16q-1 1 -4 3.5t-5.5 5t-4.5 5.5q-9 17 -39 24.5
t-45 -0.5q-4 -1 -15.5 7.5t-13.5 13.5q0 100 23.5 167.5t97.5 113.5q52 32 145 103.5t137 100.5q159 103 308.5 150.5t306.5 17.5q273 -50 393 -239q10 -15 10 -31q-6 9 -44 45t-50 43q141 -144 141 -326zM496 1090q34 15 98 38.5t90 34.5l18 6h-20q-6 2 -18 2q16 11 18 11
q119 16 176 20q23 1 135 -4q9 -3 28 -10t28 -10q8 -2 24 -2q-1 1 -8 6.5t-12 7.5q-147 56 -379 24q-3 0 -10 -3.5l-9 -4.5h19q6 1 47 11q2 0 12 -5q-2 -2 -10 -6q-27 -13 -81.5 -36t-80.5 -35q-11 -5 -21.5 -12.5t-23 -17.5t-20.5 -15zM1098 641q99 94 82 266
q-15 152 -125 185q-24 6 -144 26q-21 3 -34.5 13t-12.5 22q0 1 -4.5 3.5t-7.5 2.5q-11 -1 -31.5 -2.5t-37.5 -3.5t-33 -6q-11 -2 -23.5 -13.5t-13.5 -21.5q-2 -12 -13 -186q-5 -71 -41 -508q-2 -46 5.5 -51t50.5 14l82 27q42 15 92.5 51t88.5 70t97 90q5 5 8 7.5t7 7t8 7.5z
M827 1143q7 3 21 -2q-28 -4 -41 -4q-6 2 -6 4q6 2 26 2zM1001 1133q-10 2 -26 10l-4 -4l22 -6h8zM496 864q2 20 8 61t8 62l-33 -131q2 -5 4 -15t4 -14q2 6 4.5 18.5t4.5 18.5z" />
    <glyph glyph-name="q" unicode="q" horiz-adv-x="1134" 
d="M961 -233q-17 7 -57 20t-68.5 25t-51.5 28q-33 22 -85.5 78.5t-59.5 63.5q-5 3 -15.5 5t-13.5 -1q-68 -66 -157.5 -78.5t-168.5 20t-143.5 98.5t-87.5 148q-37 132 -12 334q29 221 114 430.5t220 439.5q43 67 147 115q35 16 73 7t56 -42q4 -7 3 -19t10 -36
q-12 -21 -7 -25q6 -2 19 0l4 -10q1 -1 6 -3t9.5 -4.5t4.5 -4.5q-36 -81 -49 -105q-68 -121 -114.5 -212.5t-95.5 -207t-78 -231.5t-39 -233q-4 -15 -8 1q0 1 -0.5 1.5t-0.5 1.5q0 3 -4.5 40t-4 41t0.5 40q2 37 27 217q0 16 -8 22q-1 -3 -4.5 -8t-4.5 -8q-28 -62 -26 -191.5
t31 -206.5q32 -85 71 -113.5t109 -19.5q3 0 6.5 9t1.5 12q-5 10 -19 29.5t-20 31.5q-25 48 -15 69q2 5 5 1q11 8 25 18.5t18 14t12.5 9t10 7t8 4.5t9.5 4.5l11 5.5q5 -5 22 -25t36 -42.5t22 -26.5q3 -3 13 -3t11 3q11 22 34 62t39.5 73t25.5 64q65 236 92 430
q29 210 -33 393q-1 2 -4 12.5t-4.5 14.5t-5.5 11.5t-8.5 10.5t-12.5 5t-18 1q-28 3 -31 7t6 24l-4 8l-63 -12q23 54 70.5 79.5t99.5 13t86 -61.5q88 -131 88 -330q0 -1 6 -190q4 -262 -49 -422q-73 -225 -197 -365q-6 -6 -7 -20.5t5 -22.5q50 -81 102 -139t119 -94
q4 -2 19 -17l-21 -12l-6 -4q11 -19 9 -23.5t-25 -11.5l-90 31l84 -37q8 -8 14 -10zM911 1405l-6 12q-37 19 -78 37l-20 -6l8 -4q13 -4 27 -10t30.5 -13.5t26.5 -11.5q2 -1 6 -2t6 -2zM979 1094l4 8l-6 14q0 -1 -1 -3.5t-1 -4.5q4 -8 4 -14zM981 823q2 53 -6 144l-4 47
l-2 -96zM827 301q14 14 15 18q39 119 84 265q22 75 22 127q0 28 3.5 75.5t4 74t-3.5 73.5l-2 39l-2 10q-2 -2 -2 -10q-1 -14 0.5 -60.5t-2.5 -60.5q-21 -140 -37 -203h6q-8 -41 -10 -57q-27 -108 -33 -148q-23 -49 -26 -59q-9 -36 -13 -55q-5 -22 -4 -29zM793 -80h4
q-2 1 -3.5 6t-2.5 6q-7 8 -22 20.5t-21 18.5h-9q9 -8 27 -25.5t27 -25.5z" />
    <glyph glyph-name="r" unicode="r" horiz-adv-x="1325" 
d="M322 -106l-5 116q-3 -18 -5 -35t-3.5 -27.5t-2.5 -20t-2 -14.5t-2 -9t-2 -6t-3 -2q-82 -9 -86 -7.5t-4 11.5q22 261 29 383q1 9 -5 34.5t-9.5 42.5t1.5 27q22 27 32 60.5t16 83t10 69.5l106 422q1 3 2 9t2 9q-3 0 -5.5 -0.5t-6.5 -1.5l-8 -2q-93 -63 -303 -188
q-2 1 -9 5.5t-9.5 6t-9.5 7t-10.5 10.5t-10 14.5t-12 20t-12.5 25.5t-15 34q-26 68 5 121.5t97 76.5l242 82q14 6 34 9q46 9 79 32.5t61 71.5q23 39 63.5 54t82.5 5t69 -41q23 -16 61 -8q54 10 179 38.5t190 39.5q102 15 186 -90q55 -66 45 -165.5t-76 -156.5
q-21 -31 -44.5 -60.5t-44.5 -53t-50 -50t-49 -43.5t-53.5 -42.5t-51 -38t-54 -39t-52.5 -37.5q-38 -27 -177.5 -116t-152.5 -99q-2 -1 -0.5 -16t4.5 -19q39 -35 115.5 -107t116.5 -108q29 -26 88 -72.5t86 -70.5q-12 4 -18 4q-18 4 -25 8l10 -25q-10 4 -36.5 17.5
t-41.5 19.5q94 -72 150 -121l-2 -6l-170 80q53 -37 67 -51l15 -14q-20 -4 -20.5 -4.5t-13.5 5t-34 9.5q10 -6 38.5 -33t37.5 -37q-32 0 -37 2l-55 27l-17 -4l-288 196q-12 8 -23.5 19t-25.5 26.5t-21 22.5q-1 1 -8 6t-10 6q0 -5 -3.5 -11t-3.5 -9l-28 -240q0 -6 -7 -16
t-8 -13q-7 21 -8 21q-16 -6 -26 -18t-13 -22t-10.5 -16t-21.5 -3zM518 608q298 185 457 314q43 32 68.5 54t58 61.5t53.5 84.5q12 23 7.5 57.5t-19.5 45.5q-30 14 -61 18t-71.5 -4.5t-77 -21t-99.5 -37.5q-143 -13 -216 -140q-35 -63 -60.5 -144t-34.5 -132t-25 -154
q-1 -7 1 -9.5t6 -1t7 3.5t6 5zM266 1014l72 28q-3 1 -5 2.5t-3 3t-2 2.5t-2 1q-19 -13 -60 -29v-8zM618 539q1 0 2 -1q4 0 5 1q104 51 116 63l43 45q-115 -71 -159 -98zM481 500q95 59 131 78q-31 -3 -55 -13l-78 -55q-17 -10 -17 -11q-1 -1 6 0q8 1 13 1z" />
    <glyph glyph-name="s" unicode="s" horiz-adv-x="847" 
d="M182 -180q-9 0 -24 7.5l-17 8.5q2 3 4.5 12t4.5 11q23 18 61 45q13 9 40.5 26t48 32t36.5 32q67 56 133 143q87 115 -45 223q-19 17 -41.5 31t-58 34t-45.5 26q-16 10 -43.5 27t-50 31t-42.5 26q-18 21 -36 38.5t-29 32.5q-35 42 -48.5 91t-10.5 89.5t16 90.5
q56 208 193 347.5t347 233.5q68 26 132 35q12 0 30 -11t29 -24q98 -109 68 -246q-29 -116 -129 -231q-6 -9 -30.5 -19t-27.5 -12l-80 -67q8 19 -3 26.5t-40 3.5q1 4 0 12t0 11q15 45 48 134t49 134q4 12 5 38.5t1 27.5q-3 -1 -10.5 -5t-10 -5.5t-10.5 -6.5t-15 -10
t-18.5 -14t-25.5 -21q15 37 55 74q-49 -33 -80.5 -56t-74.5 -61t-79 -78q-37 -40 -69 -102q-18 -38 -25 -96q0 -1 -5 -3.5t-10 -4t-5 -0.5q-27 -33 -17 -83.5t52 -80.5q138 -100 239 -154q132 -71 175.5 -188.5t-21.5 -239.5q-62 -102 -131 -141l-17 -8l72 69
q-69 -56 -94 -75h12q-1 -2 -2 -7.5t-2 -7.5q-43 -35 -72.5 -55.5t-72.5 -45t-88.5 -35t-94.5 -9.5zM715 1057q2 2 5.5 4t4.5 4l55 123q-37 -59 -63 -113q-2 -2 -1.5 -7.5t-0.5 -10.5zM694 1001l13 33h-5q-2 -3 -6.5 -12t-7.5 -14q2 -1 4 -4z" />
    <glyph glyph-name="t" unicode="t" horiz-adv-x="1077" 
d="M487 -125q-28 10 -53 16q-2 1 -7.5 3.5t-7 2.5t-3.5 -1q-4 -12 -8 -18.5t-8.5 -6t-8.5 3t-8 9t-6.5 11t-4.5 11.5l-3 6q-3 8 -17 45.5t-19.5 53t-12.5 43t-9 48.5q-26 299 47 648q12 55 26.5 113.5t31.5 125.5t26 105q4 10 13 19t17 13l7 4q-2 2 -8 4.5t-8.5 4t0.5 4.5
q27 9 55 16q-12 0 -96 -12q-1 1 -2 4t-2 4q-32 -8 -81 -26.5t-52 -24.5q-2 -1 -14 -8.5t-36 -21t-51 -25.5q-59 -25 -100 -35q-3 4 -7 14.5t-7 15.5q-14 19 -19 17q-18 -3 -26 3t-11 28q-9 53 2 72.5t54 31.5q173 40 661 182q20 6 70 22t86 26.5t71 17.5q7 1 16.5 -0.5
t17 -4.5t21 -8.5t19.5 -7.5q8 -3 92 -47q2 -1 15 -20q-1 -1 -7.5 -1.5t-7.5 -2.5q-6 -8 -18 -19.5t-19 -22t-8 -22.5q0 -46 -45 -41q-18 -3 -8 -20q-30 12 -66 8t-59.5 -13t-56.5 -19.5t-58 -12.5q-47 -16 -53 -35q-3 -16 -3 -25.5t2.5 -29t2.5 -29.5q0 -4 1 -21.5t0 -26.5
t-5 -11q-19 -9 -32 -26t-18.5 -32t-13 -40t-12.5 -37q-4 -9 -8.5 -35.5t-9.5 -38.5q-30 -72 -52.5 -170.5t-30.5 -151t-24.5 -196.5t-19.5 -166q-1 -12 -1 -33t-1 -31q0 -13 -10 -20q-2 -4 -17 -4l19 -37q17 -22 26 -39q-15 6 -28 6q-2 1 -4 0t-4 -3l-1 -1q9 -22 8 -23.5
t-10.5 4t-11.5 3.5q-5 -2 -13 -10.5t-11 -10.5q9 -15 14 -20q3 -6 11.5 -14t10.5 -11zM102 1030q9 0 27 5t27 5q-21 4 -29 2q-35 -7 -43 -8zM518 356q1 4 1.5 10.5t1.5 20.5t3 29q1 6 5.5 36.5t8 54.5t11 60t16.5 66v8l-8 -12q-27 -96 -39 -219q0 -7 -1 -16.5t-1.5 -14
t-0.5 -9.5t0.5 -8.5t2.5 -5.5z" />
    <glyph glyph-name="u" unicode="u" horiz-adv-x="1144" 
d="M451 -80q-150 19 -235 102t-120 242l-28 150q-7 50 -15 125q-12 350 68 667q31 111 147 123q46 3 84 -18.5t84 -65.5q-9 -18 -24 -102q-10 -69 -68 -420q-34 -202 10 -358q19 -67 74 -136q32 -43 80 -38.5t82 53.5q106 170 147 278q79 194 123 379q16 74 35.5 219.5
t22.5 163.5q0 34 10 51q8 13 35 21q5 0 30 -35q8 24 33 70q39 -22 53 -31q3 -2 10.5 -2t10.5 -2q14 -9 14 -17q-1 -21 -3 -60t-4 -71.5t-5 -60.5q-3 -23 -13.5 -98t-19 -124t-20.5 -96q-32 -127 -101 -294q-73 -189 -141 -310q-24 -38 -54.5 -78.5t-70 -88t-59.5 -74.5
q-5 -2 -9 -11q5 0 13 4l61 54q8 4 14 10q-3 -9 -8 -14q-93 -125 -243 -107zM1073 915q21 102 21 105q0 14 8 72q4 -32 0 -66q0 -21 -12 -65t-17 -46zM692 254q1 1 12.5 24l22 44t27.5 57.5t32 73.5q1 1 38.5 107t64.5 181q1 2 1 8t1 9q-1 -1 -8 -15q-69 -193 -84 -231
q-13 -30 -37.5 -90t-40.5 -98zM897 481l4 11l35 96q0 1 -1 3t-1 3q-4 -4 -4 -6l-35 -105z" />
    <glyph glyph-name="v" unicode="v" horiz-adv-x="1062" 
d="M356 -180q-10 2 -64 23.5t-67 23.5q-67 13 -49 72q6 4 21.5 11t17.5 9q-11 0 -22 8t-16 15.5t-5 9.5q11 35 13.5 77.5t0.5 69.5t-9 79.5t-9 72.5q-7 66 -33.5 295t-38.5 354q-4 49 -6 105.5t-3.5 125.5t-2.5 107q-4 49 0 74q6 64 74 49q53 0 100.5 -48.5t50.5 -105.5
q10 -300 13 -358q2 -88 10 -264v-21l-6 21l-7 47v-51q6 -141 15 -267q0 -4 4 -16q8 8 10 14q5 12 43.5 110.5t61.5 149.5q13 27 122 240q2 2 9 3.5t8 2.5q1 -10 4 -13.5t8 -1.5t9.5 5.5t11 9.5t10.5 8q-14 -22 -23 -53q9 13 88 125q35 53 100 148.5t117.5 174t98.5 148.5
q5 7 29.5 45.5t41.5 56.5q25 32 80 58q3 2 19 -14t20 -27q17 -48 6 -74q-3 -8 -7 -15.5t-7 -12.5t-9 -13.5t-10 -13t-14 -17t-16 -20.5q-23 -30 -83.5 -105.5t-101.5 -131.5t-75 -111q-33 -51 -69 -114.5t-60.5 -110t-63 -121t-59.5 -113.5q-4 -6 -14.5 -37.5t-22.5 -38.5
q-21 -31 -34.5 -63t-25.5 -74t-16 -55q-8 -23 -47 -129.5t-57 -171.5q-6 -26 -15 -63q-10 -42 -13 -52t-7 -14q0 12 -12 24q-7 -7 -10 -12t-5 -11.5t-6 -13.5l23 -10q-16 -16 -19 -14zM305 205q2 10 7 29t7.5 34t2.5 29q0 41 -7 118.5t-8 100.5q-3 69 -13 197.5t-13 167.5
q-5 66 -29 336l-4 16q-2 -6 -2 -16l12 -173q4 -61 11 -134t14 -156v-6q-4 4 -4 10l-23 205h-2q23 -419 45 -754q3 -7 6 -4zM219 1044q4 8 4 11l-6 39q-1 -2 -1.5 -5t-1 -7.5t-1.5 -8.5q1 -2 6 -29zM227 956q7 7 9 11l-7 14l-6 -12q0 -2 2 -6.5t2 -6.5zM246 301q2 12 5 35.5
t5 34.5q-4 39 -10 113.5t-10 113.5q0 8 -5 18v-10q1 -42 11 -241q0 -24 4 -64zM213 -66q4 0 16 9q-8 2 -14 2l-12 -6zM211 -96q1 0 3.5 2.5t4.5 3.5q-9 4 -10 4q-2 0 -6 -4q6 -6 8 -6z" />
    <glyph glyph-name="w" unicode="w" horiz-adv-x="1376" 
d="M322 -172q-77 -59 -155.5 -18t-100.5 143q-40 170 -13 446q50 363 92 580q6 30 16.5 66t18 56.5t24 65t21.5 56.5q22 45 81 39.5t91 -56.5q18 -28 26.5 -51t20.5 -39q-119 -342 -159 -514q-59 -230 -52 -555q-1 -8 2 -21t3 -18q22 18 28 25q14 18 27.5 39.5t23.5 38.5
t21.5 44.5t17.5 41.5t17.5 46.5t15 43.5t15.5 47.5t14 44.5q208 592 248 702q23 63 82 164q11 19 51 23q57 5 75 -70q12 -66 -1.5 -138t-34.5 -148.5t-23 -129.5q-32 -350 -35 -399q0 -2 1 -5t1 -5q6 12 6 14q151 358 154 365q87 193 295 624q1 4 23 37l10 17
q14 23 42.5 70.5t46 76t43.5 68t50 71.5q12 17 84 2q23 -8 30 -25t5 -48q3 -61 -23 -109q-18 -33 -54 -92.5t-46 -77.5q-5 -8 -88 -166l-80 -156q-7 -13 -9 -16.5t-6 -11t-5.5 -11t-3.5 -7.5t-3.5 -11t-3 -10.5t-5 -16.5t-5.5 -20q-110 -277 -199 -528q-24 -71 -71 -212
t-72 -212q-10 -36 -52.5 -46.5t-76.5 13.5q-101 57 -115 186q-8 61 -14 131t-11.5 155t-9.5 134q1 4 0 7.5t-3 8t-3 7.5q-21 -10 -22 -15q-37 -98 -107 -290q-42 -118 -67 -205q-6 -21 -13.5 -65t-13.5 -64q-31 -88 -67 -117zM893 113q8 8 12 14l80 217q143 376 191 496
l53 143l8 37l-6 -8l-23 -39q-47 -79 -63 -129q-1 -3 -7.5 -17t-11.5 -26.5t-6 -16.5l-14 -32q3 -1 10 6l-2 -15l-24 -65q-34 -99 -99.5 -283.5t-93.5 -265.5q-4 -6 -4 -16z" />
    <glyph glyph-name="x" unicode="x" horiz-adv-x="1024" 
d="M70 -141q-46 6 -58 18q-4 4 -20.5 28.5t-28.5 28.5q-12 3 -19 9.5t-9 11.5t-4 16t-3 15q0 12 -10.5 21.5t-9.5 19.5q43 58 174 270.5t145 234.5q14 19 15 39t-4.5 34t-15.5 33.5t-13 31.5q-18 71 -56.5 202.5t-52.5 180.5q-3 13 -16.5 60.5t-24.5 94.5q54 62 113 84
q15 5 29 10.5t19.5 8t11.5 3.5t9.5 -0.5t8.5 -6.5q16 -72 34 -139.5t40 -139t30 -100.5l4 -16q24 -79 27 -101q8 11 22.5 36.5t20.5 33.5q33 43 172 229.5t217 284.5q43 53 95 109.5t117.5 124.5t100.5 106q2 2 9 4t10 4q-5 -17 -6 -17q-26 -32 -46.5 -56.5t-30 -36
t-14.5 -17.5t-10 -12.5t-7.5 -10t-15.5 -21.5l-26 -36q-73 -109 -98 -147q133 157 184 208q12 13 28 23.5t37.5 21.5t33.5 19q-10 -15 -33 -47t-33 -47l10 -4q-8 -15 -22.5 -42t-22.5 -42q0 -1 1 -4t2.5 -7t2.5 -6q-43 -69 -73 -108l-25 -41q2 2 10 8t11 8l-21 -49
q-8 -10 -16 -33.5t-11 -29.5l-401 -725q-11 -19 2 -37q51 -73 150 -209.5t141 -196.5q6 -8 9 -27t5 -24q15 -31 27 -47q6 -6 6 -7t-6 3l-74 53l-203 236q-5 8 -17 23.5t-21.5 28t-10.5 15.5v6l-16 25l-8 6q0 -3 3.5 -14.5t4.5 -12.5l10 -10q2 -3 11 -15.5t16.5 -23
t9.5 -12.5q75 -97 174 -213q7 -6 19.5 -18.5t19.5 -18.5v-12l-39 43q-27 23 -80 76l53 -66l50 -53l14 -10l-6 -5l51 -63q4 -4 4 -6q-6 0 -8 4q-10 8 -80 67h-4l80 -81q1 -1 3 -5.5t3 -5.5q-16 7 -20.5 2t-2 -13.5t-2.5 -12.5q-114 59 -203 151t-180 224q-2 4 -4.5 6.5
l-3.5 3.5t-3 -0.5t-3 -2.5t-3.5 -5.5t-4.5 -6.5q-14 -21 -68 -103t-97 -145.5t-71 -101.5q-46 -64 -114 -22zM709 844q5 0 8 4q143 241 184 319q12 12 12 27q-1 -3 -4.5 -5t-5.5 -5q-75 -141 -78 -141q-5 1 86 171l33 68l-29 -31q11 18 15 29q-3 -8 -12.5 -20t-12.5 -17
l-76 -127l-6 -31q-38 -63 -69 -127q-5 -5 -11 -45q-7 -17 -19 -39t-15 -30z" />
    <glyph glyph-name="y" unicode="y" horiz-adv-x="1142" 
d="M1194 1407q-1 -10 -1.5 -41.5t-2.5 -48.5q-7 -51 -25 -133q1 -4 -3.5 -9.5t-10.5 -7.5q-137 -50 -231 -174q-1 -1 -4.5 -2t-4.5 -2v15q-10 -5 -12 -9q-59 -75 -127 -170q-4 -6 -16 -18l6 24l33 64q-53 -79 -105 -162q-59 -98 -92 -168q-31 -64 -80 -196
q-151 -414 -160 -439q-1 -1 -5 -2t-5 -2q-8 -17 -14 -74q-1 -5 0 -4q-9 -39 -23 -75q-2 -2 -43 10q-3 0 -8.5 3.5t-7.5 4.5l-6 -45q-6 8 -12 4.5t-12.5 -10t-11.5 -12.5t-10.5 -3.5t-9.5 17.5q-21 84 -12 172q38 287 148 545q18 49 -2 92q-143 342 -220 680q-23 96 -32 205
q-3 51 31.5 74.5t86.5 9.5q7 -1 12.5 -3.5t10 -4t8 -5.5t6 -6t5.5 -7t4 -7t3.5 -9t3 -9t2.5 -10.5t3 -10.5q93 -349 194 -705l7 -14q8 8 10 12q87 167 196.5 324.5t264.5 357.5q13 17 31.5 31t44.5 31t38 26q2 -2 23 -6q3 30 37 21q9 -2 17.5 -5t17 -9.5t13.5 -9.5t13.5 -13
t11 -12.5t12.5 -15t11 -13.5q4 -6 4 -22v-19zM1120 1317q1 1 2 4t2 4l-10 -2q-124 -159 -178 -227v-2l10 -2l15 20q6 6 12 18q98 126 147 187z" />
    <glyph glyph-name="z" unicode="z" horiz-adv-x="1402" 
d="M66 -125q-6 -3 -33 10q-11 0 2 9l22 14h-37q-27 -4 -46 33.5t-13 72.5q1 22 9.5 43t16.5 33.5t24 33t22 30.5q139 204 378.5 469.5t399.5 404.5q40 34 120 99.5t120 99.5q3 2 8 16q-22 6 -33 2q-11 -2 -21.5 -5.5t-23.5 -8.5t-20 -8l-3 -17q-23 -3 -65.5 -7t-71.5 -9
q-8 0 -24 -16l45 -3q-2 -1 -5.5 -4.5t-7.5 -5.5t-8 -2q-21 -5 -65.5 -12t-65.5 -12q-28 -7 -151 -50l-4 -8q-44 -16 -76 -33q-124 -58 -148 -71q-64 -28 -133 1.5t-92 98.5q-13 47 8 131q19 101 86 131q39 19 82 13q26 0 74 -6t67 -7q62 0 253.5 1.5t295.5 0.5q12 0 258 -6
q8 0 26.5 3.5t27.5 2.5q55 -4 72.5 -32t11.5 -95v-8q2 -22 3.5 -37.5t-4.5 -33t-11.5 -29t-16.5 -26t-19 -24t-20.5 -23.5t-19.5 -23q-6 -8 -29.5 -14t-30.5 -9q-22 -7 -83.5 -41.5t-82.5 -42.5q-12 -5 -72.5 -54t-74.5 -54l9 9q80 73 70 71q-4 -1 -26 -17l-385 -365
q-47 -43 -131.5 -129t-112.5 -114l8 2q152 38 570 137q26 10 51 16q6 1 16 4t16.5 4.5t14.5 1t14.5 -6t12.5 -17.5q0 -2 13 -10.5t24 -14.5q-21 -9 -27 -18q2 -1 7.5 -6t8.5 -4q22 2 63.5 7t59.5 7q21 2 64 4t65 4q8 0 5 -7q-1 -2 -1 -3q-8 -31 -18 -35q-2 -4 -9.5 -5
t-8.5 -1q-6 -2 -20.5 -5t-20.5 -5q22 0 34 -4l9 -4q-4 -4 -9 -4l-270 -86v2q-6 -2 -18.5 -5.5t-18.5 -5.5q-149 -59 -188 -77l-2 -5q-49 -17 -64 -26q-1 0 -3.5 -5t-2.5 -7l-10 -13q-105 -36 -129 -41q-2 -1 -5.5 0.5t-6.5 1.5q-3 -1 -9 -2t-8 -2q-52 -10 -59 -12
q-4 1 -11 2t-10 2q1 1 3.5 2t4.5 3t3 5l-39 -12v-4l-25 -6q-1 14 -30 7q-12 -4 -50 -17q-61 -21 -106 -35q26 0 30 2q24 9 27 6l70 25l49 -13q1 0 4 -2t4 -2q-2 -2 -14 -8q-30 -10 -82 -25t-66 -20l-33 -6q-114 -28 -122 -29zM500 524q12 4 16 8q21 22 46.5 45.5t57.5 52
t48 42.5q137 130 346 313l100 92l23 27l-13 -6l-34 -21q-72 -51 -103 -78q-8 -3 -41 -36l-26 -21l12 2l-6 -8q-5 -5 -14 -14.5t-16.5 -17t-14.5 -13.5q-157 -147 -371 -354q-7 -7 -10 -13zM412 436q5 2 11.5 10.5t8.5 10.5l-2 2q-1 -1 -9.5 -8.5t-12.5 -12.5zM952 309
q7 2 24 8.5t25 8.5q0 3 -2 6.5t-4.5 6t-3.5 1.5q-19 -2 -51 -18q5 -3 12 -13zM236 231q53 0 98 66zM438 43q18 0 29 8l-2 2q-4 0 -9 -1t-11 -2.5t-9 -2.5zM492 27q18 0 28 2l8 4q10 3 17 10q-3 0 -12 -2.5t-13 -3.5q-4 -2 -14 -5t-14 -5zM123 -76q10 0 20 2q12 1 22.5 5.5
t15.5 8.5t5 5q-8 -2 -29 -10t-34 -11z" />
    <glyph glyph-name="uni00A0" unicode="&#xa0;" horiz-adv-x="491" 
 />
    <glyph glyph-name="dieresis" unicode="&#xa8;" horiz-adv-x="1228" 
d="M762 1477q-73 -6 -96 61q-23 87 45 117q15 7 42 14.5t38 11.5q63 -6 86 -59q22 -48 -15 -94q-34 -45 -100 -51zM383 1505q-40 14 -50.5 49.5t15.5 67.5q19 23 53 39t66 16q29 0 53.5 -17t30.5 -42q6 -30 -10.5 -62.5t-46.5 -44.5q-63 -22 -111 -6z" />
    <glyph glyph-name="uni00AD" unicode="&#xad;" horiz-adv-x="1228" 
d="M158 551l-6 8l8 16l28 15l-30 -4q-15 -3 -30 19.5t-15 49.5q3 64 43 70q36 5 119.5 8t136.5 12q10 0 43 1.5t65.5 1.5t59.5 -3q29 -4 111.5 1t109.5 -9q16 -5 47.5 -6t51 -7t24.5 -24q1 -1 9 -23.5t9 -23.5l-14 -6l-35 -4q5 -3 19.5 -5t19.5 -5l4 -15h-12q-6 1 -6 -3
q0 -3 5 -12q7 -18 -1 -19q-21 0 -29 -11q-6 -5 -25.5 -5.5t-42.5 1.5t-24 2q-54 1 -161.5 -4.5t-154.5 -5.5q-12 0 -109.5 4t-109.5 -2q-21 -1 -61.5 -6t-46.5 -6zM268 582l51 8l15 4l-12 10q-13 0 -40.5 -3t-41.5 -3l-2 -4zM399 588l13 16l-58 -4q-8 -5 6 -7q14 -1 15 -1z
" />
    <glyph glyph-name="macron" unicode="&#xaf;" horiz-adv-x="1228" 
d="M438 1491q-12 -2 -21 11t-12 26.5t-6 32.5q-5 26 5 43t32 20q122 12 185 12q6 0 42 0.5t49.5 0t39.5 -3t47 -7.5q43 -12 43 -59q-2 -36 -12 -51.5t-33 -14.5q-52 4 -160 -6q-16 0 -104 0.5t-95 -4.5zM616 1518l11 6q-2 2 -6 2q-9 0 -9 -4q0 -5 2 -5.5t2 1.5z" />
    <glyph glyph-name="acute" unicode="&#xb4;" horiz-adv-x="1228" 
d="M373 1386q-33 14 -35 37q-1 11 7.5 27.5t10.5 24.5q15 32 32 52t65 56q12 16 41 31.5t36 30.5q17 22 38.5 33.5t49 18t35.5 9.5q11 5 27.5 2t22.5 -2.5t19 -6.5t16.5 -9.5t15.5 -11t16 -11.5q37 -28 33 -53q-3 -13 -12.5 -20.5t-17 -9.5t-23.5 -5q-77 -12 -119 -27
q-56 -28 -81 -41.5t-61 -40t-75 -63.5q-3 -11 -15.5 -18t-25.5 -3z" />
    <glyph glyph-name="periodcentered" unicode="&#xb7;" horiz-adv-x="628" 
d="M266 465l-2 27l-16 -25q-19 -17 -60.5 -8.5t-52.5 30.5q-45 90 -26.5 168t98.5 140q35 27 75.5 29t79.5 -11q4 -1 15.5 -4.5t16 -5t13 -5.5t13 -8.5t8.5 -12t6 -17.5v-6l15 -19l4 29q3 -3 8 -14.5t4 -16.5q-8 -81 -21 -127q-3 -11 -10 -22t-18.5 -24.5t-16.5 -20.5
l-24 -13l2 17q-24 -28 -37 -41q-20 -14 -68 -39h-6z" />
    <glyph glyph-name="cedilla" unicode="&#xb8;" horiz-adv-x="1228" 
d="M631 -455q-49 4 -123 52q-44 28 -64 63q-11 12 -12.5 32t8.5 34q12 12 27 12q14 0 31 -14q35 -41 80 -64q29 -16 53 -16q38 0 78 34q34 34 39 64q6 28 -13 63q-6 13 -18 36t-15 28q-55 64 -73 88q-59 68 -49 86q9 23 61 10q11 -12 53 -55t64 -70l8 -2h12l23 -16
q36 -29 51 -78t6 -102q-13 -82 -72 -129q-77 -62 -155 -56zM770 -68l-10 2l-21 25q-5 5 -8 14q3 3 8 0.5t9 -6.5q20 -16 22 -35z" />
    <glyph glyph-name="Agrave" unicode="&#xc0;" horiz-adv-x="1140" 
d="M930 1563q-14 -4 -26 2.5t-17 17.5q-55 54 -96.5 81t-120.5 65q-36 13 -117 26q-16 3 -24 5t-17.5 9.5t-11.5 20.5q-5 29 32 53q4 3 15.5 11.5t15.5 11t16.5 9.5t18.5 6.5t22 2.5t27 -2q8 -3 37 -10t50 -18.5t38 -34.5q6 -13 35 -28t41 -30q49 -37 65 -56.5t31 -53.5
q1 -7 11 -24t8 -28q-2 -23 -33 -36zM844 -360q-4 5 -17.5 19t-19.5 22q-28 35 -48 73t-35.5 88.5t-22.5 78t-20 93.5t-17 84q-15 80 -35.5 229t-28.5 199q0 3 -5 8t-7 5q-230 -112 -301 -144q-21 -9 -34.5 -26t-18 -31t-9.5 -39t-8 -35q-14 -41 -34.5 -117t-30.5 -108
q-12 -45 -58 -33q-114 36 -65 146q8 19 14.5 41t14 51.5t10.5 40.5l6 20l-68 -16q-1 4 -3 13.5t-3 17t0 14.5q1 26 14.5 41.5t40.5 30t37 22.5q4 3 12.5 10t13.5 11.5t10.5 11t8.5 12.5q24 54 133 303t170 381q47 100 140 234q9 14 21.5 28.5t22 24t26 25.5t24.5 24
q4 5 21 5t22 1q80 35 149 -41q34 -35 43 -78.5t4 -103.5q-14 -161 -34 -500l2 -18q44 17 127 57q18 6 36 6q50 -3 99 -18q5 -1 12 -7.5t8 -7.5l-18 -12q-24 -10 -33 -8q-8 1 -12 2t-6 -2.5t-2.5 -5t-1 -7t-0.5 -7.5l-5 -21l-10 -6l-47 6q-5 -16 -8 -16q-19 -8 -117 -43
q-3 -1 -23.5 -9t-29.5 -14q-16 -12 -16 -31q2 -48 14 -151h-6l-19 145l-6 21l-4 -21q29 -226 35 -278q3 -28 17 -168.5t20 -214.5q0 -1 2 -8t2 -11.5t-4.5 -8.5t-16.5 1l21 -33l-31 -4l6 -41l17 -41l-25 -6l21 -6v-10l-11 -45h-32l26 -21l4 -18l-16 -2v2zM717 1194l8 2
q2 8 4 23t4 22l-8 12q-8 -6 -8 -59zM293 526q14 0 20 2q237 99 262 111q6 1 11.5 10t5.5 17v125q4 258 8 393q0 14 -12 -6q-188 -322 -291 -631q-4 -6 -4 -21zM717 813q4 8 4 10q2 49 5 151t5 152l-4 29q-1 -3 -8.5 -12t-7.5 -15q-8 -190 6 -305v-10zM811 733l4 12
q-1 33 -2 98.5t-2 98.5h-4q-2 -51 -2 -156q0 -6 1 -20t1 -21zM879 559q-1 3 -5 11t-4 12q0 3 -0.5 8.5t-0.5 9.5t0.5 8.5t2.5 7t5 2.5l8 -26zM870 416l-6 20l6 72l11 -51v-21q0 -9 -11 -20z" />
    <glyph glyph-name="Aacute" unicode="&#xc1;" horiz-adv-x="1140" 
d="M594 1542q-33 14 -35 37q-1 11 8 27t11 24q15 33 32 53.5t64 55.5q12 16 41.5 31t36.5 30q17 22 38 33.5t48.5 18.5t35.5 10q11 5 27.5 2t22.5 -2.5t19 -6.5t16.5 -9.5t15.5 -11t16 -11.5q37 -28 33 -54q-3 -13 -12.5 -20.5t-16.5 -9t-24 -4.5q-77 -12 -119 -27
q-56 -28 -81 -41.5t-61 -40t-75 -63.5q-3 -11 -15.5 -18t-25.5 -3zM844 -360q-4 5 -17.5 19t-19.5 22q-28 35 -48 73t-35.5 88.5t-22.5 78t-20 93.5t-17 84q-15 80 -35.5 229t-28.5 199q0 3 -5 8t-7 5q-230 -112 -301 -144q-21 -9 -34.5 -26t-18 -31t-9.5 -39t-8 -35
q-14 -41 -34.5 -117t-30.5 -108q-12 -45 -58 -33q-114 36 -65 146q8 19 14.5 41t14 51.5t10.5 40.5l6 20l-68 -16q-1 4 -3 13.5t-3 17t0 14.5q1 26 14.5 41.5t40.5 30t37 22.5q4 3 12.5 10t13.5 11.5t10.5 11t8.5 12.5q24 54 133 303t170 381q47 100 140 234q9 14 21.5 28.5
t22 24t26 25.5t24.5 24q4 5 21 5t22 1q80 35 149 -41q34 -35 43 -78.5t4 -103.5q-14 -161 -34 -500l2 -18q44 17 127 57q18 6 36 6q50 -3 99 -18q5 -1 12 -7.5t8 -7.5l-18 -12q-24 -10 -33 -8q-8 1 -12 2t-6 -2.5t-2.5 -5t-1 -7t-0.5 -7.5l-5 -21l-10 -6l-47 6
q-5 -16 -8 -16q-19 -8 -117 -43q-3 -1 -23.5 -9t-29.5 -14q-16 -12 -16 -31q2 -48 14 -151h-6l-19 145l-6 21l-4 -21q29 -226 35 -278q3 -28 17 -168.5t20 -214.5q0 -1 2 -8t2 -11.5t-4.5 -8.5t-16.5 1l21 -33l-31 -4l6 -41l17 -41l-25 -6l21 -6v-10l-11 -45h-32l26 -21
l4 -18l-16 -2v2zM717 1194l8 2q2 8 4 23t4 22l-8 12q-8 -6 -8 -59zM293 526q14 0 20 2q237 99 262 111q6 1 11.5 10t5.5 17v125q4 258 8 393q0 14 -12 -6q-188 -322 -291 -631q-4 -6 -4 -21zM717 813q4 8 4 10q2 49 5 151t5 152l-4 29q-1 -3 -8.5 -12t-7.5 -15
q-8 -190 6 -305v-10zM811 733l4 12q-1 33 -2 98.5t-2 98.5h-4q-2 -51 -2 -156q0 -6 1 -20t1 -21zM879 559q-1 3 -5 11t-4 12q0 3 -0.5 8.5t-0.5 9.5t0.5 8.5t2.5 7t5 2.5l8 -26zM870 416l-6 20l6 72l11 -51v-21q0 -9 -11 -20z" />
    <glyph glyph-name="Acircumflex" unicode="&#xc2;" horiz-adv-x="1140" 
d="M971 1571q-22 30 -74 83t-74 83q-25 32 -34.5 32.5t-40.5 -28.5q-24 -25 -80.5 -73t-81.5 -75q-6 -6 -14 -5.5t-13.5 3.5t-15 11t-13.5 10q-29 25 -4 53q21 20 60 59t59 58q10 9 54.5 45.5t66.5 60.5q13 16 41 13q25 -5 31 -19q21 -37 73.5 -90.5t67.5 -73.5
q28 -36 63 -86q21 -30 -8 -53q-15 -10 -22.5 -14.5t-20 -5t-20.5 11.5zM844 -360q-4 5 -17.5 19t-19.5 22q-28 35 -48 73t-35.5 88.5t-22.5 78t-20 93.5t-17 84q-15 80 -35.5 229t-28.5 199q0 3 -5 8t-7 5q-230 -112 -301 -144q-21 -9 -34.5 -26t-18 -31t-9.5 -39t-8 -35
q-14 -41 -34.5 -117t-30.5 -108q-12 -45 -58 -33q-114 36 -65 146q8 19 14.5 41t14 51.5t10.5 40.5l6 20l-68 -16q-1 4 -3 13.5t-3 17t0 14.5q1 26 14.5 41.5t40.5 30t37 22.5q4 3 12.5 10t13.5 11.5t10.5 11t8.5 12.5q24 54 133 303t170 381q47 100 140 234q9 14 21.5 28.5
t22 24t26 25.5t24.5 24q4 5 21 5t22 1q80 35 149 -41q34 -35 43 -78.5t4 -103.5q-14 -161 -34 -500l2 -18q44 17 127 57q18 6 36 6q50 -3 99 -18q5 -1 12 -7.5t8 -7.5l-18 -12q-24 -10 -33 -8q-8 1 -12 2t-6 -2.5t-2.5 -5t-1 -7t-0.5 -7.5l-5 -21l-10 -6l-47 6
q-5 -16 -8 -16q-19 -8 -117 -43q-3 -1 -23.5 -9t-29.5 -14q-16 -12 -16 -31q2 -48 14 -151h-6l-19 145l-6 21l-4 -21q29 -226 35 -278q3 -28 17 -168.5t20 -214.5q0 -1 2 -8t2 -11.5t-4.5 -8.5t-16.5 1l21 -33l-31 -4l6 -41l17 -41l-25 -6l21 -6v-10l-11 -45h-32l26 -21
l4 -18l-16 -2v2zM717 1194l8 2q2 8 4 23t4 22l-8 12q-8 -6 -8 -59zM293 526q14 0 20 2q237 99 262 111q6 1 11.5 10t5.5 17v125q4 258 8 393q0 14 -12 -6q-188 -322 -291 -631q-4 -6 -4 -21zM717 813q4 8 4 10q2 49 5 151t5 152l-4 29q-1 -3 -8.5 -12t-7.5 -15
q-8 -190 6 -305v-10zM811 733l4 12q-1 33 -2 98.5t-2 98.5h-4q-2 -51 -2 -156q0 -6 1 -20t1 -21zM879 559q-1 3 -5 11t-4 12q0 3 -0.5 8.5t-0.5 9.5t0.5 8.5t2.5 7t5 2.5l8 -26zM870 416l-6 20l6 72l11 -51v-21q0 -9 -11 -20z" />
    <glyph glyph-name="Atilde" unicode="&#xc3;" horiz-adv-x="1140" 
d="M616 1608q-16 -26 -28 10q-18 45 -4 65q112 150 217 105q29 -14 37 -35q12 -37 32 -40t39 13q39 17 62 46q20 25 30 -17q13 -50 -4 -67q-38 -37 -73.5 -55t-81.5 -17q-57 0 -99 70q-11 20 -34 8q-57 -31 -93 -86zM844 -360q-4 5 -17.5 19t-19.5 22q-28 35 -48 73
t-35.5 88.5t-22.5 78t-20 93.5t-17 84q-15 80 -35.5 229t-28.5 199q0 3 -5 8t-7 5q-230 -112 -301 -144q-21 -9 -34.5 -26t-18 -31t-9.5 -39t-8 -35q-14 -41 -34.5 -117t-30.5 -108q-12 -45 -58 -33q-114 36 -65 146q8 19 14.5 41t14 51.5t10.5 40.5l6 20l-68 -16
q-1 4 -3 13.5t-3 17t0 14.5q1 26 14.5 41.5t40.5 30t37 22.5q4 3 12.5 10t13.5 11.5t10.5 11t8.5 12.5q24 54 133 303t170 381q47 100 140 234q9 14 21.5 28.5t22 24t26 25.5t24.5 24q4 5 21 5t22 1q80 35 149 -41q34 -35 43 -78.5t4 -103.5q-14 -161 -34 -500l2 -18
q44 17 127 57q18 6 36 6q50 -3 99 -18q5 -1 12 -7.5t8 -7.5l-18 -12q-24 -10 -33 -8q-8 1 -12 2t-6 -2.5t-2.5 -5t-1 -7t-0.5 -7.5l-5 -21l-10 -6l-47 6q-5 -16 -8 -16q-19 -8 -117 -43q-3 -1 -23.5 -9t-29.5 -14q-16 -12 -16 -31q2 -48 14 -151h-6l-19 145l-6 21l-4 -21
q29 -226 35 -278q3 -28 17 -168.5t20 -214.5q0 -1 2 -8t2 -11.5t-4.5 -8.5t-16.5 1l21 -33l-31 -4l6 -41l17 -41l-25 -6l21 -6v-10l-11 -45h-32l26 -21l4 -18l-16 -2v2zM717 1194l8 2q2 8 4 23t4 22l-8 12q-8 -6 -8 -59zM293 526q14 0 20 2q237 99 262 111q6 1 11.5 10
t5.5 17v125q4 258 8 393q0 14 -12 -6q-188 -322 -291 -631q-4 -6 -4 -21zM717 813q4 8 4 10q2 49 5 151t5 152l-4 29q-1 -3 -8.5 -12t-7.5 -15q-8 -190 6 -305v-10zM811 733l4 12q-1 33 -2 98.5t-2 98.5h-4q-2 -51 -2 -156q0 -6 1 -20t1 -21zM879 559q-1 3 -5 11t-4 12
q0 3 -0.5 8.5t-0.5 9.5t0.5 8.5t2.5 7t5 2.5l8 -26zM870 416l-6 20l6 72l11 -51v-21q0 -9 -11 -20z" />
    <glyph glyph-name="Adieresis" unicode="&#xc4;" horiz-adv-x="1140" 
d="M946 1632q-73 -6 -96 62q-23 86 45 116q15 7 42.5 15t37.5 12q63 -6 86 -59q22 -49 -14 -95q-34 -44 -101 -51zM567 1661q-40 14 -50.5 49.5t15.5 67.5q19 23 53 39t66 16q29 0 53.5 -17t30.5 -42q6 -30 -10.5 -62.5t-46.5 -44.5q-63 -22 -111 -6zM844 -360
q-4 5 -17.5 19t-19.5 22q-28 35 -48 73t-35.5 88.5t-22.5 78t-20 93.5t-17 84q-15 80 -35.5 229t-28.5 199q0 3 -5 8t-7 5q-230 -112 -301 -144q-21 -9 -34.5 -26t-18 -31t-9.5 -39t-8 -35q-14 -41 -34.5 -117t-30.5 -108q-12 -45 -58 -33q-114 36 -65 146q8 19 14.5 41
t14 51.5t10.5 40.5l6 20l-68 -16q-1 4 -3 13.5t-3 17t0 14.5q1 26 14.5 41.5t40.5 30t37 22.5q4 3 12.5 10t13.5 11.5t10.5 11t8.5 12.5q24 54 133 303t170 381q47 100 140 234q9 14 21.5 28.5t22 24t26 25.5t24.5 24q4 5 21 5t22 1q80 35 149 -41q34 -35 43 -78.5t4 -103.5
q-14 -161 -34 -500l2 -18q44 17 127 57q18 6 36 6q50 -3 99 -18q5 -1 12 -7.5t8 -7.5l-18 -12q-24 -10 -33 -8q-8 1 -12 2t-6 -2.5t-2.5 -5t-1 -7t-0.5 -7.5l-5 -21l-10 -6l-47 6q-5 -16 -8 -16q-19 -8 -117 -43q-3 -1 -23.5 -9t-29.5 -14q-16 -12 -16 -31q2 -48 14 -151h-6
l-19 145l-6 21l-4 -21q29 -226 35 -278q3 -28 17 -168.5t20 -214.5q0 -1 2 -8t2 -11.5t-4.5 -8.5t-16.5 1l21 -33l-31 -4l6 -41l17 -41l-25 -6l21 -6v-10l-11 -45h-32l26 -21l4 -18l-16 -2v2zM717 1194l8 2q2 8 4 23t4 22l-8 12q-8 -6 -8 -59zM293 526q14 0 20 2
q237 99 262 111q6 1 11.5 10t5.5 17v125q4 258 8 393q0 14 -12 -6q-188 -322 -291 -631q-4 -6 -4 -21zM717 813q4 8 4 10q2 49 5 151t5 152l-4 29q-1 -3 -8.5 -12t-7.5 -15q-8 -190 6 -305v-10zM811 733l4 12q-1 33 -2 98.5t-2 98.5h-4q-2 -51 -2 -156q0 -6 1 -20t1 -21z
M879 559q-1 3 -5 11t-4 12q0 3 -0.5 8.5t-0.5 9.5t0.5 8.5t2.5 7t5 2.5l8 -26zM870 416l-6 20l6 72l11 -51v-21q0 -9 -11 -20z" />
    <glyph glyph-name="Aring" unicode="&#xc5;" horiz-adv-x="1140" 
d="M838 1575q-44 -25 -103.5 -4.5t-87.5 69.5q-8 16 -8 60q3 89 96 155q30 20 72 9q7 -2 21.5 -5.5t21.5 -5.5q39 -9 59 -24t29 -43q12 -39 0 -72q-28 -99 -100 -139zM813 1657q49 26 35 90l-19 37q-3 5 -9 8t-7 0q-21 0 -34 -10t-23 -23.5t-21 -17.5l-2 -2q-7 -30 6 -56
q10 -24 32 -31.5t42 5.5zM844 -360q-4 5 -17.5 19t-19.5 22q-28 35 -48 73t-35.5 88.5t-22.5 78t-20 93.5t-17 84q-15 80 -35.5 229t-28.5 199q0 3 -5 8t-7 5q-230 -112 -301 -144q-21 -9 -34.5 -26t-18 -31t-9.5 -39t-8 -35q-14 -41 -34.5 -117t-30.5 -108q-12 -45 -58 -33
q-114 36 -65 146q8 19 14.5 41t14 51.5t10.5 40.5l6 20l-68 -16q-1 4 -3 13.5t-3 17t0 14.5q1 26 14.5 41.5t40.5 30t37 22.5q4 3 12.5 10t13.5 11.5t10.5 11t8.5 12.5q24 54 133 303t170 381q47 100 140 234q9 14 21.5 28.5t22 24t26 25.5t24.5 24q4 5 21 5t22 1
q80 35 149 -41q34 -35 43 -78.5t4 -103.5q-14 -161 -34 -500l2 -18q44 17 127 57q18 6 36 6q50 -3 99 -18q5 -1 12 -7.5t8 -7.5l-18 -12q-24 -10 -33 -8q-8 1 -12 2t-6 -2.5t-2.5 -5t-1 -7t-0.5 -7.5l-5 -21l-10 -6l-47 6q-5 -16 -8 -16q-19 -8 -117 -43q-3 -1 -23.5 -9
t-29.5 -14q-16 -12 -16 -31q2 -48 14 -151h-6l-19 145l-6 21l-4 -21q29 -226 35 -278q3 -28 17 -168.5t20 -214.5q0 -1 2 -8t2 -11.5t-4.5 -8.5t-16.5 1l21 -33l-31 -4l6 -41l17 -41l-25 -6l21 -6v-10l-11 -45h-32l26 -21l4 -18l-16 -2v2zM717 1194l8 2q2 8 4 23t4 22l-8 12
q-8 -6 -8 -59zM293 526q14 0 20 2q237 99 262 111q6 1 11.5 10t5.5 17v125q4 258 8 393q0 14 -12 -6q-188 -322 -291 -631q-4 -6 -4 -21zM717 813q4 8 4 10q2 49 5 151t5 152l-4 29q-1 -3 -8.5 -12t-7.5 -15q-8 -190 6 -305v-10zM811 733l4 12q-1 33 -2 98.5t-2 98.5h-4
q-2 -51 -2 -156q0 -6 1 -20t1 -21zM879 559q-1 3 -5 11t-4 12q0 3 -0.5 8.5t-0.5 9.5t0.5 8.5t2.5 7t5 2.5l8 -26zM870 416l-6 20l6 72l11 -51v-21q0 -9 -11 -20z" />
    <glyph glyph-name="AE" unicode="&#xc6;" horiz-adv-x="1691" 
d="M63 -172l-14 25q-3 2 -10.5 2.5t-9.5 1.5q-11 0 -11 6q-35 82 2 207q6 21 29.5 84.5t30.5 101.5q3 13 -23 43q-2 3 -6.5 8.5t-6.5 9t-3 8t3.5 9t14.5 8.5l-6 12q-16 15 -9 30t24 17q31 6 54 20t38 36t25 41.5t21.5 48.5t20.5 45q17 31 126 231.5t165 306.5l90 181
q14 29 29 45t45 24q41 12 89.5 -55.5t74.5 -163.5q21 35 47 66q3 15 -11.5 57t5.5 78q15 5 46.5 26t49.5 25q27 7 80.5 11t77.5 10q51 9 159.5 34t167.5 35q12 1 40 7t44 8t38 -4t38 -23q9 -8 16 -17t13 -23.5t8.5 -21t8.5 -25.5t7 -22q2 -11 -5 -28.5t-17 -26.5
q-2 -6 -23.5 -2t-29.5 2q-14 -1 -46.5 -7t-52.5 -7q-43 -8 -145 -23t-156 -26q-74 -10 -96 -74q-81 -248 -141 -412q-1 -4 -2 -12t-2 -12l24 6q45 10 140 33.5t145 33.5q11 3 24 3.5t22 0t25.5 -2t22.5 -1.5q6 -2 14.5 -14t10.5 -14q32 -40 24 -82q-3 -14 -12 -29
q-3 3 -4.5 12.5t0.5 12.5l-15 -8l-2 -7l11 -4q-27 -34 -62.5 -52t-92.5 -31.5t-77 -20.5l-243 -64q-9 -4 -9 -110v-27.5v-29.5t0.5 -28t1.5 -31.5t2.5 -30.5t4 -35.5t6 -36t9 -41.5t11.5 -43q567 163 617 178q6 2 18 3.5t14 2.5q13 8 27 5.5t14 -26.5l13 5q6 -2 3 -7
q-1 -1 -1 -2q-4 -3 -25 -24q6 1 18 2t19 2h12q-9 -9 -18 -27v-6q-74 -51 -84 -59q-4 -3 -4 -23q7 -3 6.5 -9.5t-14.5 -18.5q-321 -148 -369 -170q-27 -12 -59 -19q-79 -13 -163.5 -14.5t-150.5 2.5q-13 0 -25.5 1.5t-27 5t-24.5 5.5t-27 7.5t-24.5 8l-27 9t-24.5 8.5l-6 53
q-3 7 -10.5 20.5t-10.5 20.5q14 5 42 18.5t44 18.5l31 25l-6 10l-4 12q-2 16 -8.5 45t-8.5 43q-4 26 -10 77t-10 77q-9 17 -18 14q-64 -16 -190.5 -47.5t-190.5 -46.5q-7 -3 -16.5 -12t-12.5 -17q-22 -55 -75 -194t-85 -215q-1 -4 -6.5 -8.5t-13 -9.5t-11.5 -9zM952 799
q11 0 11 18q40 135 59 217l-10 -14q-4 -11 -8 -29q-4 -14 -23.5 -77t-30.5 -95q0 -3 1 -9.5t1 -10.5zM399 528q137 27 244 45l16 7q-1 32 -4.5 185.5t-3.5 227.5l-16 -20q-42 -70 -123 -213t-123 -213l-7 -11q-6 -10 -4 -12t21 4zM942 625l406 110l6 6h-11
q-162 -37 -305 -73q-24 -10 -41 -13q-2 -2 -20 -6q-20 -10 -25 -10q-6 0 -12 2zM924 547q36 11 165 51.5t199 63.5q6 1 17.5 5t15.5 5q7 5 18 14.5t17 13.5q-2 1 -6 3.5t-6.5 4.5t-4.5 1q-15 -5 -151 -56q-3 0 -11.5 -2t-11.5 -2l-12 -6q-15 -7 -25 -10l-28 -8l-39 -9
l-21 -6q-6 0 -20 -14q-13 0 -37 -4q-2 -1 -4.5 -2t-4 -1.5t-3.5 -0.5l-35 -10q-8 -2 -14 -5zM983 -195q-140 -10 -227 43q-4 1 -5.5 12.5t1.5 14.5q7 8 19.5 15t19.5 4q120 -31 262 0q47 15 80 20q12 -2 28 -12l-6 -13q-1 -1 -7 -6t-9 -6q-28 -5 -80.5 -16.5t-75.5 -16.5
q-7 -1 -29 -12q20 -8 31 -8q5 -3 13.5 -1t15.5 1.5t4 -6.5q-5 -1 -16.5 -7.5t-18.5 -5.5zM922 -168q10 0 14 4q-2 0 -4.5 3t-5.5 3l-21 -6z" />
    <glyph glyph-name="Ccedilla" unicode="&#xc7;" horiz-adv-x="995" 
d="M944 596q3 -244 -153 -451q-129 -184 -304 -229q0 -1 1 -4.5t1 -5.5l-10 2l-4 6q-1 0 -3 -1t-3 -1q1 -2 4 -5t4 -5l8 -2h13l22 -17q36 -29 51.5 -78t6.5 -102q-13 -82 -72 -129q-76 -61 -156 -55q-51 5 -123 51q-42 27 -63 63q-11 12 -12.5 32t8.5 34q12 12 26 12t31 -14
q35 -41 80 -64q29 -16 53 -16q37 0 78 35q34 34 39 63q6 30 -12 64q-6 13 -18 35t-15 28q-31 34 -53 62q-160 9 -256 170q-43 76 -63 162.5t-19 167t8 171.5q44 441 397 842q106 126 234 111q56 -7 116 -71.5t82 -129.5q41 -131 -37 -221q-36 -40 -79 -66q-4 -3 -16 4
t-15 15q-11 27 -31.5 85.5t-32.5 88.5q-2 2 -12.5 3.5t-11.5 0.5q-26 -47 -84 -146.5t-100 -176.5t-76 -150q-98 -209 -78 -492q8 -90 48 -136.5t132 -45.5q111 -3 213 107q43 45 81.5 107t59.5 107t54 124l30 73q2 6 15 15q1 -3 8 -12.5t8 -14.5zM469 1180
q-155 -247 -162 -363q33 76 103 195q18 29 53 90.5t41 71.5q-20 13 -35 6z" />
    <glyph glyph-name="Egrave" unicode="&#xc8;" horiz-adv-x="1163" 
d="M823 1516q-14 -4 -26 2.5t-17 17.5q-55 54 -96 80t-121 65q-40 15 -117 27q-16 3 -24 5t-17.5 9.5t-11.5 20.5q-4 28 33 53q4 3 15.5 11.5t15.5 11t16.5 9.5t18.5 6.5t22 2.5t27 -2q8 -3 37 -10t50 -18.5t38 -34.5q6 -13 34.5 -28t40.5 -30q49 -37 65.5 -56.5t31.5 -53.5
q1 -7 10.5 -24t7.5 -28q-2 -23 -33 -36zM291 -92q-13 0 -25.5 1.5t-27 5t-24.5 5.5t-27 7.5t-24.5 8l-27 9t-24.5 8.5l-7 53q-3 7 -10 20.5t-10 20.5q14 5 42 18.5t44 18.5q16 4 48 4h40q-37 62 -41 70q-28 47 -42.5 107.5t-16.5 100.5t-2 113q-2 31 7.5 46.5t41.5 19.5
q22 4 46 14t51.5 23t39.5 18q9 4 33.5 15t27.5 12q7 0 11 -2l405 110l6 6h-10q-163 -37 -305 -73q-24 -10 -41 -13q-2 -2 -20 -6q-20 -10 -25 -10q-6 0 -12 2q-6 -2 -17 -6.5t-18 -7.5l-70 -25q-4 -2 -10 -2q-8 -4 -10 -4q-3 0 -11 -4l-47 -17l-2 -6q-8 -5 -17 -6.5
t-22.5 -3t-21.5 -2.5h-21q3 3 7.5 12.5t7.5 12.5q1 1 9 6t13 8q-1 0 -13.5 -2t-18.5 -4l14 16q1 5 0 16.5t0 16.5q18 73 49.5 212t46.5 202q19 57 57 108q11 19 66 51l-55 -12q-114 -22 -271 -65q-6 0 -8 2q-3 7 -16.5 12.5t-23.5 8.5t-8.5 13.5t22.5 28.5q2 1 7.5 4t9.5 5
t10.5 8t12.5 14l19 26q49 20 141 54t135 51q15 5 47 26t50 25q27 7 80 11t77 10q51 9 160 34t168 35q12 1 40 7t44 8t38 -4t38 -23q9 -8 16 -17t13 -23.5t8.5 -21t8.5 -25.5t7 -22q2 -11 -5.5 -28.5t-17.5 -26.5q-2 -6 -23.5 -2t-29.5 2q-14 -1 -46 -7t-52 -7
q-43 -8 -145 -23t-156 -26q-74 -10 -96 -74q-72 -219 -142 -412q-1 -4 -2 -12t-2 -12q3 1 8.5 1.5t9.5 1.5t7 3q45 10 139.5 33.5t144.5 33.5q11 3 24.5 3.5t22.5 0t25.5 -2t22.5 -1.5q6 -2 14 -14t10 -14q33 -41 25 -82q-3 -13 -12 -29q-3 3 -5 12.5t0 12.5l-14 -8l-2 -7
l10 -4q-28 -34 -63 -52t-91.5 -31.5t-76.5 -20.5q-54 -21 -113.5 -41.5t-140.5 -46.5t-115 -37q-1 -1 -2.5 -3.5t-3.5 -4.5h10q8 0 22.5 3.5t25.5 7t21 3t13 -7.5q-13 -7 -16 -12q0 -23 -5.5 -68.5t-4.5 -81.5t14 -68q8 -21 45 -77q4 -2 8 -13l-22 -4q0 2 -4.5 6.5t-6.5 8.5
q-22 22 -32 34q10 -22 24 -32l10 -17q5 -8 11 -13t11 -8.5t13.5 -4t13.5 -0.5t15 2.5t13 3t14 4.5t12 4q231 65 569 164q6 2 18.5 3.5t14.5 2.5q13 8 27 5.5t14 -26.5l12 5q6 -2 3 -7q-1 -1 -1 -2l-24 -24q6 1 18 2t19 2h12q-11 -11 -19 -27v-6q-74 -51 -84 -59
q-4 -3 -4 -23q7 -3 6.5 -9.5t-14.5 -18.5q-358 -166 -368 -170q-26 -11 -60 -19q-79 -13 -163 -14.5t-150 2.5zM408 743q10 0 10 19q40 135 59 217l-10 -14q-4 -11 -8 -29q-7 -23 -25 -82.5t-28 -89.5q0 -3 1 -10t1 -11zM205 494q3 -4 5.5 -3.5t9 4.5t9.5 5q30 6 76 20
q47 14 455 142q6 1 17.5 5t15.5 5q7 5 17.5 14.5t16.5 13.5q-2 1 -5.5 3.5t-6 4.5t-4.5 1q-21 -7 -152 -56q-3 0 -11 -2t-11 -2l-12 -6q-15 -7 -25 -10l-29 -8l-39 -9l-20 -6q-6 0 -20 -14q-13 0 -37 -4q-12 -4 -13 -4l-34 -10q-10 -2 -15 -5l-168 -53h-6q-1 -3 -4 -7t-4 -5
l14 2q-12 -12 -20 -16zM281 485q13 3 30 13h-12q-10 -2 -27 -11zM455 -195q-141 -11 -228 43q-4 1 -5.5 12.5t1.5 14.5q7 8 19.5 15t19.5 4q120 -31 262 0q47 15 80 20q14 -3 29 -12l-6 -13q-1 -1 -7.5 -6t-9.5 -6q-28 -5 -80 -16.5t-75 -16.5q-7 -1 -29 -12q20 -8 31 -8
q5 -3 13.5 -1t15 1.5t3.5 -6.5q-5 -1 -16 -7.5t-18 -5.5zM393 -168q11 0 15 4q-2 0 -5 3t-6 3l-20 -6z" />
    <glyph glyph-name="Eacute" unicode="&#xc9;" horiz-adv-x="1163" 
d="M487 1495q-32 14 -34 37q-1 11 7.5 27t10.5 24q15 33 32 53.5t64 55.5q12 16 41.5 31t36.5 30q17 22 38.5 33.5t49 18.5t35.5 10q11 5 27.5 2t22.5 -2.5t19 -6.5t16.5 -9.5t15.5 -11t16 -11.5q37 -28 33 -54q-3 -13 -13 -20.5t-17 -9t-24 -4.5q-77 -12 -119 -27
q-56 -28 -81 -41.5t-61 -40t-75 -63.5q-3 -11 -15.5 -18t-25.5 -3zM291 -92q-13 0 -25.5 1.5t-27 5t-24.5 5.5t-27 7.5t-24.5 8l-27 9t-24.5 8.5l-7 53q-3 7 -10 20.5t-10 20.5q14 5 42 18.5t44 18.5q16 4 48 4h40q-37 62 -41 70q-28 47 -42.5 107.5t-16.5 100.5t-2 113
q-2 31 7.5 46.5t41.5 19.5q22 4 46 14t51.5 23t39.5 18q9 4 33.5 15t27.5 12q7 0 11 -2l405 110l6 6h-10q-163 -37 -305 -73q-24 -10 -41 -13q-2 -2 -20 -6q-20 -10 -25 -10q-6 0 -12 2q-6 -2 -17 -6.5t-18 -7.5l-70 -25q-4 -2 -10 -2q-8 -4 -10 -4q-3 0 -11 -4l-47 -17
l-2 -6q-8 -5 -17 -6.5t-22.5 -3t-21.5 -2.5h-21q3 3 7.5 12.5t7.5 12.5q1 1 9 6t13 8q-1 0 -13.5 -2t-18.5 -4l14 16q1 5 0 16.5t0 16.5q18 73 49.5 212t46.5 202q19 57 57 108q11 19 66 51l-55 -12q-114 -22 -271 -65q-6 0 -8 2q-3 7 -16.5 12.5t-23.5 8.5t-8.5 13.5
t22.5 28.5q2 1 7.5 4t9.5 5t10.5 8t12.5 14l19 26q49 20 141 54t135 51q15 5 47 26t50 25q27 7 80 11t77 10q51 9 160 34t168 35q12 1 40 7t44 8t38 -4t38 -23q9 -8 16 -17t13 -23.5t8.5 -21t8.5 -25.5t7 -22q2 -11 -5.5 -28.5t-17.5 -26.5q-2 -6 -23.5 -2t-29.5 2
q-14 -1 -46 -7t-52 -7q-43 -8 -145 -23t-156 -26q-74 -10 -96 -74q-72 -219 -142 -412q-1 -4 -2 -12t-2 -12q3 1 8.5 1.5t9.5 1.5t7 3q45 10 139.5 33.5t144.5 33.5q11 3 24.5 3.5t22.5 0t25.5 -2t22.5 -1.5q6 -2 14 -14t10 -14q33 -41 25 -82q-3 -13 -12 -29q-3 3 -5 12.5
t0 12.5l-14 -8l-2 -7l10 -4q-28 -34 -63 -52t-91.5 -31.5t-76.5 -20.5q-54 -21 -113.5 -41.5t-140.5 -46.5t-115 -37q-1 -1 -2.5 -3.5t-3.5 -4.5h10q8 0 22.5 3.5t25.5 7t21 3t13 -7.5q-13 -7 -16 -12q0 -23 -5.5 -68.5t-4.5 -81.5t14 -68q8 -21 45 -77q4 -2 8 -13l-22 -4
q0 2 -4.5 6.5t-6.5 8.5q-22 22 -32 34q10 -22 24 -32l10 -17q5 -8 11 -13t11 -8.5t13.5 -4t13.5 -0.5t15 2.5t13 3t14 4.5t12 4q231 65 569 164q6 2 18.5 3.5t14.5 2.5q13 8 27 5.5t14 -26.5l12 5q6 -2 3 -7q-1 -1 -1 -2l-24 -24q6 1 18 2t19 2h12q-11 -11 -19 -27v-6
q-74 -51 -84 -59q-4 -3 -4 -23q7 -3 6.5 -9.5t-14.5 -18.5q-358 -166 -368 -170q-26 -11 -60 -19q-79 -13 -163 -14.5t-150 2.5zM408 743q10 0 10 19q40 135 59 217l-10 -14q-4 -11 -8 -29q-7 -23 -25 -82.5t-28 -89.5q0 -3 1 -10t1 -11zM205 494q3 -4 5.5 -3.5t9 4.5t9.5 5
q30 6 76 20q47 14 455 142q6 1 17.5 5t15.5 5q7 5 17.5 14.5t16.5 13.5q-2 1 -5.5 3.5t-6 4.5t-4.5 1q-21 -7 -152 -56q-3 0 -11 -2t-11 -2l-12 -6q-15 -7 -25 -10l-29 -8l-39 -9l-20 -6q-6 0 -20 -14q-13 0 -37 -4q-12 -4 -13 -4l-34 -10q-10 -2 -15 -5l-168 -53h-6
q-1 -3 -4 -7t-4 -5l14 2q-12 -12 -20 -16zM281 485q13 3 30 13h-12q-10 -2 -27 -11zM455 -195q-141 -11 -228 43q-4 1 -5.5 12.5t1.5 14.5q7 8 19.5 15t19.5 4q120 -31 262 0q47 15 80 20q14 -3 29 -12l-6 -13q-1 -1 -7.5 -6t-9.5 -6q-28 -5 -80 -16.5t-75 -16.5
q-7 -1 -29 -12q20 -8 31 -8q5 -3 13.5 -1t15 1.5t3.5 -6.5q-5 -1 -16 -7.5t-18 -5.5zM393 -168q11 0 15 4q-2 0 -5 3t-6 3l-20 -6z" />
    <glyph glyph-name="Ecircumflex" unicode="&#xca;" horiz-adv-x="1163" 
d="M864 1524q-22 30 -73.5 83t-73.5 83q-25 32 -35 32.5t-41 -28.5q-24 -25 -80.5 -73t-81.5 -75q-6 -6 -14 -6t-13 3.5t-14.5 11t-13.5 10.5q-29 25 -4 53q20 20 59.5 59t59.5 58q8 8 53 45t67 61q13 15 41 12q25 -5 31 -18q21 -37 73.5 -90.5t67.5 -73.5q36 -45 64 -86
q21 -30 -8 -53q-15 -10 -22.5 -14.5t-20.5 -5t-21 11.5zM291 -92q-13 0 -25.5 1.5t-27 5t-24.5 5.5t-27 7.5t-24.5 8l-27 9t-24.5 8.5l-7 53q-3 7 -10 20.5t-10 20.5q14 5 42 18.5t44 18.5q16 4 48 4h40q-37 62 -41 70q-28 47 -42.5 107.5t-16.5 100.5t-2 113
q-2 31 7.5 46.5t41.5 19.5q22 4 46 14t51.5 23t39.5 18q9 4 33.5 15t27.5 12q7 0 11 -2l405 110l6 6h-10q-163 -37 -305 -73q-24 -10 -41 -13q-2 -2 -20 -6q-20 -10 -25 -10q-6 0 -12 2q-6 -2 -17 -6.5t-18 -7.5l-70 -25q-4 -2 -10 -2q-8 -4 -10 -4q-3 0 -11 -4l-47 -17
l-2 -6q-8 -5 -17 -6.5t-22.5 -3t-21.5 -2.5h-21q3 3 7.5 12.5t7.5 12.5q1 1 9 6t13 8q-1 0 -13.5 -2t-18.5 -4l14 16q1 5 0 16.5t0 16.5q18 73 49.5 212t46.5 202q19 57 57 108q11 19 66 51l-55 -12q-114 -22 -271 -65q-6 0 -8 2q-3 7 -16.5 12.5t-23.5 8.5t-8.5 13.5
t22.5 28.5q2 1 7.5 4t9.5 5t10.5 8t12.5 14l19 26q49 20 141 54t135 51q15 5 47 26t50 25q27 7 80 11t77 10q51 9 160 34t168 35q12 1 40 7t44 8t38 -4t38 -23q9 -8 16 -17t13 -23.5t8.5 -21t8.5 -25.5t7 -22q2 -11 -5.5 -28.5t-17.5 -26.5q-2 -6 -23.5 -2t-29.5 2
q-14 -1 -46 -7t-52 -7q-43 -8 -145 -23t-156 -26q-74 -10 -96 -74q-72 -219 -142 -412q-1 -4 -2 -12t-2 -12q3 1 8.5 1.5t9.5 1.5t7 3q45 10 139.5 33.5t144.5 33.5q11 3 24.5 3.5t22.5 0t25.5 -2t22.5 -1.5q6 -2 14 -14t10 -14q33 -41 25 -82q-3 -13 -12 -29q-3 3 -5 12.5
t0 12.5l-14 -8l-2 -7l10 -4q-28 -34 -63 -52t-91.5 -31.5t-76.5 -20.5q-54 -21 -113.5 -41.5t-140.5 -46.5t-115 -37q-1 -1 -2.5 -3.5t-3.5 -4.5h10q8 0 22.5 3.5t25.5 7t21 3t13 -7.5q-13 -7 -16 -12q0 -23 -5.5 -68.5t-4.5 -81.5t14 -68q8 -21 45 -77q4 -2 8 -13l-22 -4
q0 2 -4.5 6.5t-6.5 8.5q-22 22 -32 34q10 -22 24 -32l10 -17q5 -8 11 -13t11 -8.5t13.5 -4t13.5 -0.5t15 2.5t13 3t14 4.5t12 4q231 65 569 164q6 2 18.5 3.5t14.5 2.5q13 8 27 5.5t14 -26.5l12 5q6 -2 3 -7q-1 -1 -1 -2l-24 -24q6 1 18 2t19 2h12q-11 -11 -19 -27v-6
q-74 -51 -84 -59q-4 -3 -4 -23q7 -3 6.5 -9.5t-14.5 -18.5q-358 -166 -368 -170q-26 -11 -60 -19q-79 -13 -163 -14.5t-150 2.5zM408 743q10 0 10 19q40 135 59 217l-10 -14q-4 -11 -8 -29q-7 -23 -25 -82.5t-28 -89.5q0 -3 1 -10t1 -11zM205 494q3 -4 5.5 -3.5t9 4.5t9.5 5
q30 6 76 20q47 14 455 142q6 1 17.5 5t15.5 5q7 5 17.5 14.5t16.5 13.5q-2 1 -5.5 3.5t-6 4.5t-4.5 1q-21 -7 -152 -56q-3 0 -11 -2t-11 -2l-12 -6q-15 -7 -25 -10l-29 -8l-39 -9l-20 -6q-6 0 -20 -14q-13 0 -37 -4q-12 -4 -13 -4l-34 -10q-10 -2 -15 -5l-168 -53h-6
q-1 -3 -4 -7t-4 -5l14 2q-12 -12 -20 -16zM281 485q13 3 30 13h-12q-10 -2 -27 -11zM455 -195q-141 -11 -228 43q-4 1 -5.5 12.5t1.5 14.5q7 8 19.5 15t19.5 4q120 -31 262 0q47 15 80 20q14 -3 29 -12l-6 -13q-1 -1 -7.5 -6t-9.5 -6q-28 -5 -80 -16.5t-75 -16.5
q-7 -1 -29 -12q20 -8 31 -8q5 -3 13.5 -1t15 1.5t3.5 -6.5q-5 -1 -16 -7.5t-18 -5.5zM393 -168q11 0 15 4q-2 0 -5 3t-6 3l-20 -6z" />
    <glyph glyph-name="Edieresis" unicode="&#xcb;" horiz-adv-x="1163" 
d="M840 1585q-74 -6 -97 62q-23 86 45 116q15 7 42.5 15t37.5 12q63 -6 86 -59q22 -49 -14 -95q-34 -45 -100 -51zM461 1614q-40 14 -50.5 49.5t15.5 67.5q19 23 53 39t66 16q29 0 53.5 -17.5t30.5 -42.5q6 -30 -11 -62t-47 -44q-62 -21 -110 -6zM291 -92q-13 0 -25.5 1.5
t-27 5t-24.5 5.5t-27 7.5t-24.5 8l-27 9t-24.5 8.5l-7 53q-3 7 -10 20.5t-10 20.5q14 5 42 18.5t44 18.5q16 4 48 4h40q-37 62 -41 70q-28 47 -42.5 107.5t-16.5 100.5t-2 113q-2 31 7.5 46.5t41.5 19.5q22 4 46 14t51.5 23t39.5 18q9 4 33.5 15t27.5 12q7 0 11 -2l405 110
l6 6h-10q-163 -37 -305 -73q-24 -10 -41 -13q-2 -2 -20 -6q-20 -10 -25 -10q-6 0 -12 2q-6 -2 -17 -6.5t-18 -7.5l-70 -25q-4 -2 -10 -2q-8 -4 -10 -4q-3 0 -11 -4l-47 -17l-2 -6q-8 -5 -17 -6.5t-22.5 -3t-21.5 -2.5h-21q3 3 7.5 12.5t7.5 12.5q1 1 9 6t13 8q-1 0 -13.5 -2
t-18.5 -4l14 16q1 5 0 16.5t0 16.5q18 73 49.5 212t46.5 202q19 57 57 108q11 19 66 51l-55 -12q-114 -22 -271 -65q-6 0 -8 2q-3 7 -16.5 12.5t-23.5 8.5t-8.5 13.5t22.5 28.5q2 1 7.5 4t9.5 5t10.5 8t12.5 14l19 26q49 20 141 54t135 51q15 5 47 26t50 25q27 7 80 11
t77 10q51 9 160 34t168 35q12 1 40 7t44 8t38 -4t38 -23q9 -8 16 -17t13 -23.5t8.5 -21t8.5 -25.5t7 -22q2 -11 -5.5 -28.5t-17.5 -26.5q-2 -6 -23.5 -2t-29.5 2q-14 -1 -46 -7t-52 -7q-43 -8 -145 -23t-156 -26q-74 -10 -96 -74q-72 -219 -142 -412q-1 -4 -2 -12t-2 -12
q3 1 8.5 1.5t9.5 1.5t7 3q45 10 139.5 33.5t144.5 33.5q11 3 24.5 3.5t22.5 0t25.5 -2t22.5 -1.5q6 -2 14 -14t10 -14q33 -41 25 -82q-3 -13 -12 -29q-3 3 -5 12.5t0 12.5l-14 -8l-2 -7l10 -4q-28 -34 -63 -52t-91.5 -31.5t-76.5 -20.5q-54 -21 -113.5 -41.5t-140.5 -46.5
t-115 -37q-1 -1 -2.5 -3.5t-3.5 -4.5h10q8 0 22.5 3.5t25.5 7t21 3t13 -7.5q-13 -7 -16 -12q0 -23 -5.5 -68.5t-4.5 -81.5t14 -68q8 -21 45 -77q4 -2 8 -13l-22 -4q0 2 -4.5 6.5t-6.5 8.5q-22 22 -32 34q10 -22 24 -32l10 -17q5 -8 11 -13t11 -8.5t13.5 -4t13.5 -0.5t15 2.5
t13 3t14 4.5t12 4q231 65 569 164q6 2 18.5 3.5t14.5 2.5q13 8 27 5.5t14 -26.5l12 5q6 -2 3 -7q-1 -1 -1 -2l-24 -24q6 1 18 2t19 2h12q-11 -11 -19 -27v-6q-74 -51 -84 -59q-4 -3 -4 -23q7 -3 6.5 -9.5t-14.5 -18.5q-358 -166 -368 -170q-26 -11 -60 -19
q-79 -13 -163 -14.5t-150 2.5zM408 743q10 0 10 19q40 135 59 217l-10 -14q-4 -11 -8 -29q-7 -23 -25 -82.5t-28 -89.5q0 -3 1 -10t1 -11zM205 494q3 -4 5.5 -3.5t9 4.5t9.5 5q30 6 76 20q47 14 455 142q6 1 17.5 5t15.5 5q7 5 17.5 14.5t16.5 13.5q-2 1 -5.5 3.5t-6 4.5
t-4.5 1q-21 -7 -152 -56q-3 0 -11 -2t-11 -2l-12 -6q-15 -7 -25 -10l-29 -8l-39 -9l-20 -6q-6 0 -20 -14q-13 0 -37 -4q-12 -4 -13 -4l-34 -10q-10 -2 -15 -5l-168 -53h-6q-1 -3 -4 -7t-4 -5l14 2q-12 -12 -20 -16zM281 485q13 3 30 13h-12q-10 -2 -27 -11zM455 -195
q-141 -11 -228 43q-4 1 -5.5 12.5t1.5 14.5q7 8 19.5 15t19.5 4q120 -31 262 0q47 15 80 20q14 -3 29 -12l-6 -13q-1 -1 -7.5 -6t-9.5 -6q-28 -5 -80 -16.5t-75 -16.5q-7 -1 -29 -12q20 -8 31 -8q5 -3 13.5 -1t15 1.5t3.5 -6.5q-5 -1 -16 -7.5t-18 -5.5zM393 -168q11 0 15 4
q-2 0 -5 3t-6 3l-20 -6z" />
    <glyph glyph-name="Igrave" unicode="&#xcc;" horiz-adv-x="628" 
d="M618 1559q-14 -4 -26 2.5t-17 17.5q-55 54 -96 80t-121 65q-41 15 -116 27q-16 3 -24 5t-18 9.5t-12 20.5q-4 28 33 53q4 3 15.5 11.5t15.5 11t16.5 9.5t18.5 6.5t22 2.5t27 -2q8 -3 37 -10t50 -18.5t38 -34.5q6 -13 35 -28t41 -30q49 -37 65 -56.5t31 -53.5
q1 -7 10.5 -24t7.5 -28q-2 -23 -33 -36zM246 -217q-34 20 -33 31q-1 24 -1 33t2 33t3 34l-14 -2l-6 -76q-1 -5 -6.5 -13.5t-6.5 -10.5q-19 19 -22 24l-10 8q-22 18 -48 50q-25 29 -22 47q28 353 53 598q6 59 12 132t12.5 129.5t18.5 131.5q6 38 22.5 114.5t22.5 114.5
q3 12 10.5 66.5t16.5 81.5q28 87 67 147q35 51 108.5 45.5t102.5 -59.5l27 -29q1 -13 -2.5 -35t-3.5 -32q-1 -10 -1 -53.5t-3 -65.5q-6 -38 -25.5 -108t-25.5 -103q-4 -18 -37 -209q-4 -17 -16.5 -60t-16.5 -67q-9 -63 -15.5 -136.5t-15.5 -137.5l-10 2l-12 -105
q-8 -91 -16.5 -253.5t-10.5 -186.5l-2 -27q-12 28 -14 76q0 -7 -4.5 -21t-4.5 -20q-2 -12 -2 -37t-2 -37q0 -3 -2 -5t-5.5 -5t-4.5 -4l-6 14q3 43 8 179t12 210q7 87 39 373q2 7 -2 19q0 -3 -7.5 -8.5t-8.5 -6.5l-35 -330l-18 -208q-15 -189 -21 -224q-1 -4 -5 -8.5t-8 -7.5
t-5 -2z" />
    <glyph glyph-name="Iacute" unicode="&#xcd;" horiz-adv-x="628" 
d="M283 1538q-33 14 -35 37q-1 11 7.5 27t10.5 24q15 33 32 53.5t64 55.5q12 16 41.5 31t36.5 30q17 22 38.5 33.5t49 18.5t35.5 10q11 5 27.5 2t22.5 -2.5t19 -6.5t16.5 -9.5t15.5 -11t16 -11.5q37 -28 33 -54q-3 -13 -13 -20.5t-17 -9t-24 -4.5q-75 -12 -118 -27
q-56 -28 -81 -41.5t-61 -40t-75 -63.5q-3 -11 -15.5 -18t-25.5 -3zM246 -217q-34 20 -33 31q-1 24 -1 33t2 33t3 34l-14 -2l-6 -76q-1 -5 -6.5 -13.5t-6.5 -10.5q-19 19 -22 24l-10 8q-22 18 -48 50q-25 29 -22 47q28 353 53 598q6 59 12 132t12.5 129.5t18.5 131.5
q6 38 22.5 114.5t22.5 114.5q3 12 10.5 66.5t16.5 81.5q28 87 67 147q35 51 108.5 45.5t102.5 -59.5l27 -29q1 -13 -2.5 -35t-3.5 -32q-1 -10 -1 -53.5t-3 -65.5q-6 -38 -25.5 -108t-25.5 -103q-4 -18 -37 -209q-4 -17 -16.5 -60t-16.5 -67q-9 -63 -15.5 -136.5
t-15.5 -137.5l-10 2l-12 -105q-8 -91 -16.5 -253.5t-10.5 -186.5l-2 -27q-12 28 -14 76q0 -7 -4.5 -21t-4.5 -20q-2 -12 -2 -37t-2 -37q0 -3 -2 -5t-5.5 -5t-4.5 -4l-6 14q3 43 8 179t12 210q7 87 39 373q2 7 -2 19q0 -3 -7.5 -8.5t-8.5 -6.5l-35 -330l-18 -208
q-15 -189 -21 -224q-1 -4 -5 -8.5t-8 -7.5t-5 -2z" />
    <glyph glyph-name="Icircumflex" unicode="&#xce;" horiz-adv-x="628" 
d="M659 1567q-22 30 -73.5 83t-73.5 83q-25 32 -35 32.5t-41 -28.5q-24 -25 -80.5 -73t-81.5 -75q-6 -6 -14 -6t-13 3.5t-14.5 11t-13.5 10.5q-29 25 -4 53q21 20 59.5 59t59.5 58q10 9 54.5 45.5t66.5 60.5q13 15 41 12q24 -5 30 -18q21 -37 73.5 -90t68.5 -74
q28 -36 63 -86q21 -30 -8 -53q-15 -10 -22.5 -14.5t-20.5 -5t-21 11.5zM246 -217q-34 20 -33 31q-1 24 -1 33t2 33t3 34l-14 -2l-6 -76q-1 -5 -6.5 -13.5t-6.5 -10.5q-19 19 -22 24l-10 8q-22 18 -48 50q-25 29 -22 47q28 353 53 598q6 59 12 132t12.5 129.5t18.5 131.5
q6 38 22.5 114.5t22.5 114.5q3 12 10.5 66.5t16.5 81.5q28 87 67 147q35 51 108.5 45.5t102.5 -59.5l27 -29q1 -13 -2.5 -35t-3.5 -32q-1 -10 -1 -53.5t-3 -65.5q-6 -38 -25.5 -108t-25.5 -103q-4 -18 -37 -209q-4 -17 -16.5 -60t-16.5 -67q-9 -63 -15.5 -136.5
t-15.5 -137.5l-10 2l-12 -105q-8 -91 -16.5 -253.5t-10.5 -186.5l-2 -27q-12 28 -14 76q0 -7 -4.5 -21t-4.5 -20q-2 -12 -2 -37t-2 -37q0 -3 -2 -5t-5.5 -5t-4.5 -4l-6 14q3 43 8 179t12 210q7 87 39 373q2 7 -2 19q0 -3 -7.5 -8.5t-8.5 -6.5l-35 -330l-18 -208
q-15 -189 -21 -224q-1 -4 -5 -8.5t-8 -7.5t-5 -2z" />
    <glyph glyph-name="Idieresis" unicode="&#xcf;" horiz-adv-x="628" 
d="M635 1628q-73 -6 -96 62q-23 86 45 116q15 7 42.5 15t37.5 12q63 -6 86 -59q22 -48 -15 -95q-34 -45 -100 -51zM256 1657q-40 14 -50.5 49.5t15.5 67.5q19 23 53 39t66 16q29 0 53.5 -17.5t30.5 -42.5q6 -30 -10.5 -62t-46.5 -44q-63 -22 -111 -6zM246 -217
q-34 20 -33 31q-1 24 -1 33t2 33t3 34l-14 -2l-6 -76q-1 -5 -6.5 -13.5t-6.5 -10.5q-19 19 -22 24l-10 8q-22 18 -48 50q-25 29 -22 47q28 353 53 598q6 59 12 132t12.5 129.5t18.5 131.5q6 38 22.5 114.5t22.5 114.5q3 12 10.5 66.5t16.5 81.5q28 87 67 147
q35 51 108.5 45.5t102.5 -59.5l27 -29q1 -13 -2.5 -35t-3.5 -32q-1 -10 -1 -53.5t-3 -65.5q-6 -38 -25.5 -108t-25.5 -103q-4 -18 -37 -209q-4 -17 -16.5 -60t-16.5 -67q-9 -63 -15.5 -136.5t-15.5 -137.5l-10 2l-12 -105q-8 -91 -16.5 -253.5t-10.5 -186.5l-2 -27
q-12 28 -14 76q0 -7 -4.5 -21t-4.5 -20q-2 -12 -2 -37t-2 -37q0 -3 -2 -5t-5.5 -5t-4.5 -4l-6 14q3 43 8 179t12 210q7 87 39 373q2 7 -2 19q0 -3 -7.5 -8.5t-8.5 -6.5l-35 -330l-18 -208q-15 -189 -21 -224q-1 -4 -5 -8.5t-8 -7.5t-5 -2z" />
    <glyph glyph-name="Eth" unicode="&#xd0;" horiz-adv-x="1157" 
d="M993 1286q158 -175 142 -446q-17 -325 -160 -523q-158 -218 -348 -307q-51 -25 -117 -41q-2 -2 -25 4q8 12 17 21q22 18 69 54t83 66t65 60q21 22 43 51.5t36 50t39 59.5t35 54q9 15 24.5 44t18.5 34q-83 -108 -143 -180q-129 -164 -295 -242q-24 -12 -52.5 -23.5
t-63 -24t-54.5 -20.5q-106 -42 -223 64q-32 29 -44 67.5t-10 71t13 78.5q4 19 23 52t24 48q9 27 23 134q11 91 20 143q-71 0 -102 -2q-12 -2 -21 8t-12 21.5t-6 27.5q-5 20 5 34t32 17q9 1 51.5 4.5t75.5 4.5q40 177 82 307l2 16q-2 -1 -7.5 -2t-7.5 -2l-143 -82
q-2 -2 -14 -8q-4 12 -2 16q42 70 61 95l-41 -25q-15 -10 -16 -10q-9 5 -9 16q0 5 5 45q3 7 10.5 34.5t15.5 39.5q124 169 299 233q4 0 29 15q30 20 61 26q188 37 338 -41q3 0 35.5 -22t75 -56t63.5 -59zM975 879q2 90 -16.5 157t-75.5 119h-11q51 -71 67.5 -156.5
t14.5 -195.5q3 9 9 24t9 27t3 25zM664 518q109 157 116 293q-3 16 -7 44.5t-8 52t-9 44.5q-26 106 -105.5 157t-181.5 26q-16 -4 -20 -17q-8 -26 -31.5 -92.5t-32.5 -101.5q-34 -136 -41 -172q119 0 170 -9q23 -6 33 -17t10 -32q-2 -30 -12 -42t-33 -11q-66 2 -160 -6h-24
q-12 -99 -29 -354q-1 -13 4 -60q37 7 64 21q88 43 159 111.5t138 164.5zM238 389l2 129q-7 -20 -11.5 -40.5t-8.5 -45t-6 -40t-5 -46t-4 -41.5q-2 -16 10 -45q1 -3 11 -1t10 5q0 24 -3.5 70t-3.5 55h9z" />
    <glyph glyph-name="Ntilde" unicode="&#xd1;" horiz-adv-x="1249" 
d="M250 -328q-2 25 -5 73t-5 73l-11 22l-4 -20q-8 -53 -14 -76q0 -2 -6 -8q0 1 -2 4.5t-2 5.5q0 6 1 19.5t1 19.5l-2 22l-8 -22l-11 -21l-6 25q0 7 2 20t2 23t-4 18q-16 38 -15.5 89t7.5 90t0 90l-8 -2q-6 -91 -15 -178q-1 -14 -3 -29.5t-5 -34.5t-4 -29l-10 -12l-4.5 9
t-3.5 10q-1 20 -2 61.5t-2 62.5h-5q-1 -11 -1.5 -31.5t-1.5 -37.5t-3 -33q0 -6 -6.5 -17.5t-7.5 -13.5q-14 23 -14 31q0 105 6 213q3 53 7 151t8 177t9 149q15 218 50 625h14q-2 -24 -5 -73.5t-5 -74.5h8q6 37 14.5 110t9.5 83l13 117q1 20 10.5 27t30.5 5q23 -3 43 7
q22 9 38.5 10t27 -4.5t19.5 -17.5t13.5 -23t11 -27.5t11.5 -25.5q16 -31 37.5 -93t33.5 -88q66 -150 129 -280q27 -59 77 -166.5t67 -143.5l6 -28l-19 18q-22 39 -143 260l-16 21l6 -23q20 -37 57.5 -111.5t56.5 -111.5q4 -5 5.5 -11t2 -11t1.5 -7l14 -24l10 -21q2 -5 7 -11
t7 -9l21 -33h4q5 24 16.5 78.5t16.5 83.5q141 702 178 878q16 75 59 193h4l-26 -131l6 -2q7 23 20.5 70t20.5 71q1 4 3.5 8.5t5 7.5t7 7.5t6.5 7.5q4 -5 12.5 -15t14 -18t8.5 -16q2 -10 1.5 -15.5t-3.5 -17t-4 -16.5q-5 -41 -29 -185h7l49 191l6 20l25 21q0 -4 2 -12.5
t2 -12.5q-3 -170 -49.5 -478t-55.5 -413q-25 -304 -37 -510l8 -4q2 5 4 21.5t5 23.5l2 -2q0 -34 -2.5 -205.5t0.5 -205.5q3 -117 -135 -138q-29 -4 -57.5 22t-45.5 73q-20 53 -45 127q-5 44 -21.5 90.5t-33 77t-46 80.5t-42.5 75l-4 2q29 -70 84 -196l-54 90l-45 67h-4
q-101 212 -155 336q-17 38 -43 109.5t-35 93.5l-9 12l-8 -24q-26 -174 -28 -201q-5 -50 -15.5 -148t-18.5 -174.5t-13 -146.5q-5 -60 -9.5 -127t-9 -153.5t-6.5 -127.5h-4zM506 1497q-16 -27 -29 10q-18 46 -4 66q54 72 106.5 100.5t110.5 3.5q29 -14 37 -35
q12 -37 32.5 -39.5t39.5 13.5q39 17 61 45q21 26 31 -16q13 -51 -4 -68q-38 -37 -74 -55t-82 -17q-56 0 -98 70q-11 20 -35 8q-55 -30 -92 -86zM297 784l2 27l10 -23v123l-6 13l-4 -15q-4 -82 -8 -123zM1028 647h6l25 174l2 33l-10 -27q-19 -139 -23 -180zM1016 528h4
q2 25 10 80l-10 -2q-4 -54 -4 -78zM1032 100q2 10 8 43q0 5 -1 13t-1 10l-10 -25q0 -2 -1 -6.5t-1.5 -7.5t-0.5 -7v-7t0.5 -5.5t2.5 -4.5t4 -3zM252 -403q-19 16 -19 41l19 2l2 -19q-2 -12 -2 -24z" />
    <glyph glyph-name="Ograve" unicode="&#xd2;" horiz-adv-x="1257" 
d="M930 1542q-14 -4 -26 2.5t-17 18.5q-55 54 -96 80t-121 65q-40 15 -117 27q-17 3 -24 4.5t-17 9t-12 20.5q-5 30 32 54q4 3 15.5 11.5t15.5 11t16.5 9.5t18.5 6.5t22 2.5t27 -2q7 -3 36.5 -10t50.5 -19t38 -35q6 -13 35 -27.5t41 -29.5q49 -37 65 -56.5t31 -54.5
q2 -8 11.5 -24t7.5 -27q-2 -24 -33 -37zM705 -82q-79 -59 -165.5 -76.5t-164.5 4.5t-146 82t-112 150q-138 286 -56 643q85 351 295 592q43 50 87 76t102 16q6 -1 13.5 2.5t20.5 12.5t15 10q39 23 73.5 38t73 23.5t78.5 5t80 -19.5q3 -1 13.5 -1.5t13.5 -2.5
q99 -74 164 -153.5t94 -180.5l8 -15q1 -13 0.5 -28t1.5 -28t8 -13v63q1 9 -7.5 38t-8.5 36l8 6l16 -27q37 -113 7 -303q-65 -408 -285 -710q-126 -167 -227 -240zM735 172q123 113 207 330q80 201 66 481q-12 199 -177 330q-92 74 -200 24q-5 -2 -10 -8t-5 -10q1 -5 8 -27.5
t7 -34.5t3.5 -51.5t2.5 -64.5t-8 -47q-17 -49 -60.5 -135t-58.5 -121q-11 -25 -20.5 -55.5t-19 -68t-15.5 -57.5l-4 -26q-38 -208 16 -371q35 -101 114.5 -127.5t153.5 39.5zM481 834l11 32q24 72 51 160l-4 12l-11 -12q-6 -22 -23 -75.5t-24 -82.5v-34zM420 305
q-41 265 16 445q6 22 11 47t10 55.5t8 48.5l-4 2q-2 -5 -15 -46.5t-15.5 -49.5t-14 -45t-14 -49.5t-10.5 -46t-9 -50t-4.5 -46t-2.5 -50t3.5 -46.5t7.5 -50q2 -9 5 -24.5t5 -25t5 -22t5 -20.5t4 -15t4.5 -10t4.5 -2zM221 236h8q-45 136 -39 266l5 24l8 80h-6
q-21 -110 -17 -157q-10 -90 41 -213zM193 184l6 2q-42 86 -45 166q-12 -3 -7 -39q0 -42 46 -129z" />
    <glyph glyph-name="Oacute" unicode="&#xd3;" horiz-adv-x="1257" 
d="M594 1522q-33 14 -35 37q-1 11 8 27t11 24q15 33 31.5 52.5t64.5 55.5q12 16 41.5 31.5t36.5 30.5q17 22 38 33.5t48.5 18t35.5 9.5q11 5 27.5 2t22.5 -2.5t19 -6.5t16.5 -9.5t15.5 -11t16 -11.5q37 -28 33 -53q-3 -13 -12.5 -20.5t-17 -9.5t-23.5 -5q-82 -13 -119 -26
q-78 -39 -119 -65.5t-98 -80.5q-3 -11 -15.5 -17.5t-25.5 -2.5zM705 -82q-79 -59 -165.5 -76.5t-164.5 4.5t-146 82t-112 150q-138 286 -56 643q85 351 295 592q43 50 87 76t102 16q6 -1 13.5 2.5t20.5 12.5t15 10q39 23 73.5 38t73 23.5t78.5 5t80 -19.5q3 -1 13.5 -1.5
t13.5 -2.5q99 -74 164 -153.5t94 -180.5l8 -15q1 -13 0.5 -28t1.5 -28t8 -13v63q1 9 -7.5 38t-8.5 36l8 6l16 -27q37 -113 7 -303q-65 -408 -285 -710q-126 -167 -227 -240zM735 172q123 113 207 330q80 201 66 481q-12 199 -177 330q-92 74 -200 24q-5 -2 -10 -8t-5 -10
q1 -5 8 -27.5t7 -34.5t3.5 -51.5t2.5 -64.5t-8 -47q-17 -49 -60.5 -135t-58.5 -121q-11 -25 -20.5 -55.5t-19 -68t-15.5 -57.5l-4 -26q-38 -208 16 -371q35 -101 114.5 -127.5t153.5 39.5zM481 834l11 32q24 72 51 160l-4 12l-11 -12q-6 -22 -23 -75.5t-24 -82.5v-34z
M420 305q-41 265 16 445q6 22 11 47t10 55.5t8 48.5l-4 2q-2 -5 -15 -46.5t-15.5 -49.5t-14 -45t-14 -49.5t-10.5 -46t-9 -50t-4.5 -46t-2.5 -50t3.5 -46.5t7.5 -50q2 -9 5 -24.5t5 -25t5 -22t5 -20.5t4 -15t4.5 -10t4.5 -2zM221 236h8q-45 136 -39 266l5 24l8 80h-6
q-21 -110 -17 -157q-10 -90 41 -213zM193 184l6 2q-42 86 -45 166q-12 -3 -7 -39q0 -42 46 -129z" />
    <glyph glyph-name="Ocircumflex" unicode="&#xd4;" horiz-adv-x="1257" 
d="M971 1550q-22 30 -74 83t-74 83q-25 32 -34.5 32.5t-40.5 -28.5q-24 -25 -80.5 -72.5t-81.5 -74.5q-6 -6 -14 -6t-13.5 3t-15.5 11t-13 10q-29 26 -4 54q21 19 59.5 57.5t59.5 58.5q8 7 53.5 45t67.5 62q13 15 41 12q25 -5 31 -18q21 -37 73.5 -90.5t67.5 -73.5
q28 -36 63 -86q21 -30 -8 -53q-34 -24 -48 -20q-9 2 -15 11zM705 -82q-79 -59 -165.5 -76.5t-164.5 4.5t-146 82t-112 150q-138 286 -56 643q85 351 295 592q43 50 87 76t102 16q6 -1 13.5 2.5t20.5 12.5t15 10q39 23 73.5 38t73 23.5t78.5 5t80 -19.5q3 -1 13.5 -1.5
t13.5 -2.5q99 -74 164 -153.5t94 -180.5l8 -15q1 -13 0.5 -28t1.5 -28t8 -13v63q1 9 -7.5 38t-8.5 36l8 6l16 -27q37 -113 7 -303q-65 -408 -285 -710q-126 -167 -227 -240zM735 172q123 113 207 330q80 201 66 481q-12 199 -177 330q-92 74 -200 24q-5 -2 -10 -8t-5 -10
q1 -5 8 -27.5t7 -34.5t3.5 -51.5t2.5 -64.5t-8 -47q-17 -49 -60.5 -135t-58.5 -121q-11 -25 -20.5 -55.5t-19 -68t-15.5 -57.5l-4 -26q-38 -208 16 -371q35 -101 114.5 -127.5t153.5 39.5zM481 834l11 32q24 72 51 160l-4 12l-11 -12q-6 -22 -23 -75.5t-24 -82.5v-34z
M420 305q-41 265 16 445q6 22 11 47t10 55.5t8 48.5l-4 2q-2 -5 -15 -46.5t-15.5 -49.5t-14 -45t-14 -49.5t-10.5 -46t-9 -50t-4.5 -46t-2.5 -50t3.5 -46.5t7.5 -50q2 -9 5 -24.5t5 -25t5 -22t5 -20.5t4 -15t4.5 -10t4.5 -2zM221 236h8q-45 136 -39 266l5 24l8 80h-6
q-21 -110 -17 -157q-10 -90 41 -213zM193 184l6 2q-42 86 -45 166q-12 -3 -7 -39q0 -42 46 -129z" />
    <glyph glyph-name="Otilde" unicode="&#xd5;" horiz-adv-x="1257" 
d="M616 1587q-16 -26 -28 10q-18 46 -4 66q54 72 106.5 100.5t110.5 3.5q29 -15 37 -34q12 -37 32 -40t39 13q41 18 62 45q20 25 30 -16q13 -51 -4 -68q-38 -37 -73.5 -55t-81.5 -17q-57 0 -99 70q-11 20 -34 8q-57 -31 -93 -86zM705 -82q-79 -59 -165.5 -76.5t-164.5 4.5
t-146 82t-112 150q-138 286 -56 643q85 351 295 592q43 50 87 76t102 16q6 -1 13.5 2.5t20.5 12.5t15 10q39 23 73.5 38t73 23.5t78.5 5t80 -19.5q3 -1 13.5 -1.5t13.5 -2.5q99 -74 164 -153.5t94 -180.5l8 -15q1 -13 0.5 -28t1.5 -28t8 -13v63q1 9 -7.5 38t-8.5 36l8 6
l16 -27q37 -113 7 -303q-65 -408 -285 -710q-126 -167 -227 -240zM735 172q123 113 207 330q80 201 66 481q-12 199 -177 330q-92 74 -200 24q-5 -2 -10 -8t-5 -10q1 -5 8 -27.5t7 -34.5t3.5 -51.5t2.5 -64.5t-8 -47q-17 -49 -60.5 -135t-58.5 -121q-11 -25 -20.5 -55.5
t-19 -68t-15.5 -57.5l-4 -26q-38 -208 16 -371q35 -101 114.5 -127.5t153.5 39.5zM481 834l11 32q24 72 51 160l-4 12l-11 -12q-6 -22 -23 -75.5t-24 -82.5v-34zM420 305q-41 265 16 445q6 22 11 47t10 55.5t8 48.5l-4 2q-2 -5 -15 -46.5t-15.5 -49.5t-14 -45t-14 -49.5
t-10.5 -46t-9 -50t-4.5 -46t-2.5 -50t3.5 -46.5t7.5 -50q2 -9 5 -24.5t5 -25t5 -22t5 -20.5t4 -15t4.5 -10t4.5 -2zM221 236h8q-45 136 -39 266l5 24l8 80h-6q-21 -110 -17 -157q-10 -90 41 -213zM193 184l6 2q-42 86 -45 166q-12 -3 -7 -39q0 -42 46 -129z" />
    <glyph glyph-name="Odieresis" unicode="&#xd6;" horiz-adv-x="1257" 
d="M946 1612q-73 -6 -96 61q-23 87 45 117q15 7 42.5 15t37.5 12q63 -6 86 -60q22 -48 -14 -94q-34 -44 -101 -51zM567 1640q-40 14 -50.5 49.5t15.5 67.5q19 23 53 39t66 16q29 0 53.5 -17t30.5 -42q6 -30 -10.5 -62t-46.5 -44q-64 -22 -111 -7zM705 -82
q-79 -59 -165.5 -76.5t-164.5 4.5t-146 82t-112 150q-138 286 -56 643q85 351 295 592q43 50 87 76t102 16q6 -1 13.5 2.5t20.5 12.5t15 10q39 23 73.5 38t73 23.5t78.5 5t80 -19.5q3 -1 13.5 -1.5t13.5 -2.5q99 -74 164 -153.5t94 -180.5l8 -15q1 -13 0.5 -28t1.5 -28
t8 -13v63q1 9 -7.5 38t-8.5 36l8 6l16 -27q37 -113 7 -303q-65 -408 -285 -710q-126 -167 -227 -240zM735 172q123 113 207 330q80 201 66 481q-12 199 -177 330q-92 74 -200 24q-5 -2 -10 -8t-5 -10q1 -5 8 -27.5t7 -34.5t3.5 -51.5t2.5 -64.5t-8 -47q-17 -49 -60.5 -135
t-58.5 -121q-11 -25 -20.5 -55.5t-19 -68t-15.5 -57.5l-4 -26q-38 -208 16 -371q35 -101 114.5 -127.5t153.5 39.5zM481 834l11 32q24 72 51 160l-4 12l-11 -12q-6 -22 -23 -75.5t-24 -82.5v-34zM420 305q-41 265 16 445q6 22 11 47t10 55.5t8 48.5l-4 2q-2 -5 -15 -46.5
t-15.5 -49.5t-14 -45t-14 -49.5t-10.5 -46t-9 -50t-4.5 -46t-2.5 -50t3.5 -46.5t7.5 -50q2 -9 5 -24.5t5 -25t5 -22t5 -20.5t4 -15t4.5 -10t4.5 -2zM221 236h8q-45 136 -39 266l5 24l8 80h-6q-21 -110 -17 -157q-10 -90 41 -213zM193 184l6 2q-42 86 -45 166q-12 -3 -7 -39
q0 -42 46 -129z" />
    <glyph glyph-name="Oslash" unicode="&#xd8;" horiz-adv-x="1257" 
d="M1210 1171q37 -113 7 -303q-65 -408 -285 -710q-126 -167 -227 -240q-122 -88 -248 -84t-226 92q-47 -68 -90 -135q-8 -11 -26 -14q-7 14 -13 30q-15 -2 -26 9l-10 -2v8q0 2 -7 6h-6q1 1 -2 11.5t-6 15.5l-6 4q4 4 4 6l2 4l-10 2l-6 10q7 10 10 23q32 54 92 145
q-2 5 -7 14.5t-7 14.5q-138 286 -56 643q85 351 295 592q43 50 87 76t102 16q6 -1 13.5 2.5t20.5 12.5t15 10q39 23 73.5 38t73 23.5t78.5 5t80 -19.5q3 -1 13.5 -1.5t13.5 -2.5q59 -46 84 -70q60 83 116 147l13 13q2 1 4.5 -1t8 -7.5t9.5 -8.5q22 -15 41 -12v-6l23 -19
l-6 -18q-1 -5 -8 -12t-7 -11l-2 -16q-40 -67 -98 -152q58 -78 80 -161l8 -15q1 -13 0.5 -28t1.5 -28t8 -13v63q1 9 -7.5 38t-8.5 36l8 6zM629 1094q-17 -49 -60.5 -135t-58.5 -121q-11 -25 -20.5 -55.5t-19 -68t-15.5 -57.5l-4 -26q-11 -58 -13 -99q125 200 129 207
q82 119 134 197t100.5 154t72.5 112l29 43q-29 36 -72 68q-92 74 -200 24q-5 -2 -10 -8t-5 -10q1 -5 8 -27.5t7 -34.5t3.5 -51.5t2.5 -64.5t-8 -47zM942 502q80 201 66 481q-3 63 -25 121q-33 -56 -92 -150q-43 -66 -199 -313t-231 -365l6 -16q35 -101 114.5 -127.5
t153.5 39.5q123 113 207 330zM481 868v-34l11 32q24 72 51 160l-4 12l-11 -12q-6 -22 -23 -75.5t-24 -82.5zM461 903q-3 -10 -10 -31q-15 -47 -23 -72t-20 -68t-17.5 -73t-10.5 -68t-4 -74t7 -71q14 24 20 31q-7 150 33 273q6 22 11 47t10 55.5t8 48.5zM197 606
q-21 -110 -17 -157q-10 -90 41 -213h8q-45 136 -39 266l5 24l8 80h-6zM154 352q-12 -3 -7 -39q0 -42 46 -129l6 2q-42 86 -45 166z" />
    <glyph glyph-name="Ugrave" unicode="&#xd9;" horiz-adv-x="917" 
d="M324 1565q-40 7 -49 20q-4 6 -5 14q-5 29 33 54q4 3 15.5 11.5t15.5 11t16.5 9.5t18.5 6.5t22 2.5t27 -2q7 -3 36.5 -10t50.5 -19t38 -35q6 -13 34.5 -27.5t40.5 -29.5q49 -37 65.5 -57t31.5 -54q1 -7 10.5 -23.5t7.5 -27.5q-2 -24 -33 -37q-14 -4 -26 2.5t-17 18.5
q-55 54 -96 80t-121 65q-41 15 -116 27zM786 1081q28 -30 38.5 -68t8 -66.5t-9.5 -73t-8 -66.5q-7 -188 -59 -459q-7 -38 -20.5 -76.5t-34.5 -90t-29 -72.5q-5 -13 -14.5 -35.5t-12.5 -28.5q-4 -4 -2 -8t10 4l54 78l8 8v-8q-4 -6 -16.5 -29.5t-17.5 -31.5l-17.5 -28t-20 -29
t-21 -24.5t-25.5 -24t-28 -18.5t-34 -16q-2 -1 -9 -2t-10 -2q0 6 2 14.5t4 8.5q-3 -1 -12 -1t-12 -2q-42 -26 -95 -26q-64 0 -127 37q-120 73 -165 187t-50 274q-12 334 58 679q14 75 63 254q6 26 27 43q6 5 20 5.5t17 -3.5q8 -13 43 -81l28 26q3 -8 8 -19t7 -16t4 -15
t2 -22q11 20 31 33q2 -4 9 -15.5t10.5 -19.5t2.5 -14q-6 -29 -23 -100t-24 -109q-18 -93 -27 -140t-21.5 -132t-16 -143.5t-3 -133.5t10.5 -143q16 -128 94 -211q29 -34 62.5 -30t48.5 44q3 9 18 50.5t20 55.5t16.5 49.5t17.5 56t13 49.5t11 55q16 97 29.5 201.5t30.5 246.5
t24 201q4 39 16 117q0 2 6 14l8 -8q9 -16 23.5 -49t29 -58t31.5 -43zM508 -70q1 3 4 1l6 -3q-8 -4 -24 -13.5t-26 -14t-17 -4.5q-20 -2 -27 0z" />
    <glyph glyph-name="Uacute" unicode="&#xda;" horiz-adv-x="917" 
d="M365 1352q-33 14 -35 37q-1 11 7.5 27t10.5 24q15 33 31.5 52.5t64.5 55.5q12 16 41.5 31.5t36.5 30.5q17 22 38.5 33.5t49 18t35.5 9.5q11 5 27.5 2t22.5 -2.5t19 -6.5t16.5 -9.5t15.5 -11t16 -11.5q37 -28 33 -53q-3 -13 -12.5 -20.5t-17.5 -9.5t-24 -5
q-80 -12 -118 -26q-78 -39 -119 -65.5t-98 -80.5q-3 -11 -15.5 -17.5t-25.5 -2.5zM786 1081q28 -30 38.5 -68t8 -66.5t-9.5 -73t-8 -66.5q-7 -188 -59 -459q-7 -38 -20.5 -76.5t-34.5 -90t-29 -72.5q-5 -13 -14.5 -35.5t-12.5 -28.5q-4 -4 -2 -8t10 4l54 78l8 8v-8
q-4 -6 -16.5 -29.5t-17.5 -31.5l-17.5 -28t-20 -29t-21 -24.5t-25.5 -24t-28 -18.5t-34 -16q-2 -1 -9 -2t-10 -2q0 6 2 14.5t4 8.5q-3 -1 -12 -1t-12 -2q-42 -26 -95 -26q-64 0 -127 37q-120 73 -165 187t-50 274q-12 334 58 679q14 75 63 254q6 26 27 43q6 5 20 5.5
t17 -3.5q8 -13 43 -81l28 26q3 -8 8 -19t7 -16t4 -15t2 -22q11 20 31 33q2 -4 9 -15.5t10.5 -19.5t2.5 -14q-6 -29 -23 -100t-24 -109q-18 -93 -27 -140t-21.5 -132t-16 -143.5t-3 -133.5t10.5 -143q16 -128 94 -211q29 -34 62.5 -30t48.5 44q3 9 18 50.5t20 55.5t16.5 49.5
t17.5 56t13 49.5t11 55q16 97 29.5 201.5t30.5 246.5t24 201q4 39 16 117q0 2 6 14l8 -8q9 -16 23.5 -49t29 -58t31.5 -43zM508 -70q1 3 4 1l6 -3q-8 -4 -24 -13.5t-26 -14t-17 -4.5q-20 -2 -27 0z" />
    <glyph glyph-name="Ucircumflex" unicode="&#xdb;" horiz-adv-x="917" 
d="M301 1421q-29 26 -4 54q20 19 59 57.5t60 58.5q8 7 53.5 45t67.5 62q13 15 41 12q24 -5 30 -18q21 -37 73.5 -90t68.5 -74q28 -36 63 -86q21 -30 -8 -53q-15 -11 -22.5 -15t-20.5 -5t-21 11q-22 30 -73.5 83t-73.5 83q-25 32 -35 32.5t-41 -28.5q-24 -25 -80.5 -72.5
t-81.5 -74.5q-6 -6 -14 -6t-13 3t-14.5 11t-13.5 10zM786 1081q28 -30 38.5 -68t8 -66.5t-9.5 -73t-8 -66.5q-7 -188 -59 -459q-7 -38 -20.5 -76.5t-34.5 -90t-29 -72.5q-5 -13 -14.5 -35.5t-12.5 -28.5q-4 -4 -2 -8t10 4l54 78l8 8v-8q-4 -6 -16.5 -29.5t-17.5 -31.5
l-17.5 -28t-20 -29t-21 -24.5t-25.5 -24t-28 -18.5t-34 -16q-2 -1 -9 -2t-10 -2q0 6 2 14.5t4 8.5q-3 -1 -12 -1t-12 -2q-42 -26 -95 -26q-64 0 -127 37q-120 73 -165 187t-50 274q-12 334 58 679q14 75 63 254q6 26 27 43q6 5 20 5.5t17 -3.5q8 -13 43 -81l28 26
q3 -8 8 -19t7 -16t4 -15t2 -22q11 20 31 33q2 -4 9 -15.5t10.5 -19.5t2.5 -14q-6 -29 -23 -100t-24 -109q-18 -93 -27 -140t-21.5 -132t-16 -143.5t-3 -133.5t10.5 -143q16 -128 94 -211q29 -34 62.5 -30t48.5 44q3 9 18 50.5t20 55.5t16.5 49.5t17.5 56t13 49.5t11 55
q16 97 29.5 201.5t30.5 246.5t24 201q4 39 16 117q0 2 6 14l8 -8q9 -16 23.5 -49t29 -58t31.5 -43zM508 -70q1 3 4 1l6 -3q-8 -4 -24 -13.5t-26 -14t-17 -4.5q-20 -2 -27 0z" />
    <glyph glyph-name="Udieresis" unicode="&#xdc;" horiz-adv-x="917" 
d="M717 1442q-73 -6 -96 61q-23 87 45 117q15 7 42 15t37 12q63 -6 86 -60q22 -48 -14 -94q-34 -45 -100 -51zM338 1470q-40 14 -50.5 49.5t15.5 67.5q19 23 53 39t66 16q29 0 53.5 -17t30.5 -42q6 -30 -10.5 -62t-46.5 -44q-64 -22 -111 -7zM702 1231q9 -16 23.5 -49
t29 -58t31.5 -43q28 -30 38.5 -68t8 -66.5t-9.5 -73t-8 -66.5q-7 -188 -59 -459q-7 -38 -20.5 -76.5t-34.5 -90t-29 -72.5q-5 -13 -14.5 -35.5t-12.5 -28.5q-4 -4 -2 -8t10 4l54 78l8 8v-8q-4 -6 -16.5 -29.5t-17.5 -31.5l-17.5 -28t-20 -29t-21 -24.5t-25.5 -24t-28 -18.5
t-34 -16q-2 -1 -9 -2t-10 -2q0 6 2 14.5t4 8.5q-3 -1 -12 -1t-12 -2q-42 -26 -95 -26q-64 0 -127 37q-120 73 -165 187t-50 274q-12 334 58 679q14 75 63 254q6 26 27 43q6 5 20 5.5t17 -3.5q8 -13 43 -81l28 26q3 -8 8 -19t7 -16t4 -15t2 -22q11 20 31 33q2 -4 9 -15.5
t10.5 -19.5t2.5 -14q-6 -29 -23 -100t-24 -109q-18 -93 -27 -140t-21.5 -132t-16 -143.5t-3 -133.5t10.5 -143q16 -128 94 -211q29 -34 62.5 -30t48.5 44q3 9 18 50.5t20 55.5t16.5 49.5t17.5 56t13 49.5t11 55q16 97 29.5 201.5t30.5 246.5t24 201q4 39 16 117q0 2 6 14z
M508 -70q1 3 4 1l6 -3q-8 -4 -24 -13.5t-26 -14t-17 -4.5q-20 -2 -27 0z" />
    <glyph glyph-name="Yacute" unicode="&#xdd;" horiz-adv-x="1044" 
d="M319 1468q-32 14 -34 37q-1 11 7.5 27t10.5 24q15 33 32 53.5t64 55.5q12 16 41.5 31t36.5 30q17 22 38.5 33.5t49 18.5t35.5 10q11 5 27.5 2t22.5 -2.5t19 -6.5t16.5 -9.5t15.5 -11t16 -11.5q37 -28 33 -53q-3 -13 -12.5 -20.5t-17.5 -9.5t-24 -5q-75 -12 -118 -27
q-57 -29 -81 -42t-61 -39.5t-76 -63.5q-3 -11 -15.5 -18t-25.5 -3zM1081 1493q51 34 56 37q-27 -27 -43 -51q-38 -44 -97 -123l-8 -17q-32 -57 -43 -73q-44 -64 -94 -129q-12 -23 -21 -35l-16 -29l-24 -47l-23 -35q-5 -11 -15 -30.5t-12 -22.5l-14 -23q-5 -12 -20 -38
l-9 -17q-12 -29 -47 -102l-18 -47q-10 -20 -15 -35q-46 -130 -57 -172q-89 -335 -119 -443l2 -14q-1 -3 -4.5 -22.5t-7.5 -28.5l-6 -25q-1 -7 -5 -21.5t-5 -21.5q-3 -14 -12 -40.5t-11 -34.5l-22 -17q-19 -1 -56.5 -5t-56.5 -5l-7.5 7.5t-8.5 6.5q-23 2 -33 12t-9 20.5
t4.5 27.5t2.5 26q0 6 3.5 20t4.5 20t-4 9q-1 -9 -7 -25t-7 -22q-10 -37 -13 -41q-3 6 -10 18t-11 21.5t-3 16.5q19 108 92 489q7 46 -4 80q-17 59 -66 216.5t-73 244.5q-22 66 -66 252q-3 13 2 67q0 2 4 6l21 -20l6 16l12 15l23 -4h8q4 0 12.5 1t13.5 1t7 -2q39 -72 51 -103
q65 -184 90 -268q9 -35 24.5 -100t18.5 -78l8 -21l12 19q162 416 430 686q26 27 60.5 55t60.5 46.5t70 49t65 45.5q2 2 25 -4l-8 -20q-3 -6 -11.5 -17t-11.5 -16q-3 0 -7 -5.5t-8.5 -13.5t-8.5 -12q-13 -14 -27 -28t-31.5 -31t-27.5 -27l2 -6q4 2 78 62l4 -7
q-22 -28 -62 -63l4 -6q12 9 150 119l20 8l-6 -19q-9 -18 -35 -57zM410 -137l18 65q2 5 8.5 14t7.5 13l-26 -98q0 -1 -1.5 -2t-3.5 -2.5t-3 -2.5v13z" />
    <glyph glyph-name="Thorn" unicode="&#xde;" horiz-adv-x="1112" 
d="M1038 557q3 -50 1.5 -81t-10 -54.5t-36.5 -79.5q-119 -230 -395 -309q-8 -2 -11 -0.5t-16 14.5q-9 6 -24 2q-122 -10 -199 29q-7 3 -12 3t-8 -0.5t-5 -5t-2 -6t-1 -8.5t-1 -8q-17 -150 -14 -297q5 -13 1.5 -25.5t-27.5 -4.5v-2q-4 2 -11 2v-2q-22 -5 -53 2q-89 7 -112 23
t-21 67q9 247 33 497q4 37 31.5 295.5t43.5 395.5q5 41 17 116.5t20 137t11 116.5q2 37 8.5 73.5t21 94t17.5 72.5q2 12 20 12q9 0 16.5 -23t10.5 -24q8 -3 15.5 10t17.5 13q44 2 75 -15t27 -55q-6 -63 -18 -121q-15 -97 -11.5 -144.5t11.5 -58t30 -10.5q117 -4 168 -29
q121 -58 209 -194q48 -73 68 -106.5t45 -87.5t33.5 -106.5t9.5 -121.5q0 -3 1 -9t1 -9q1 3 2 10t2 10q1 9 0 16.5t1 16.5t7 16q12 -10 12 -47zM782 481q20 106 -25.5 212t-164.5 253q-53 68 -113 80q10 -10 19 -16q115 -70 182 -236q4 -16 4 -24q-6 -2 -9.5 0.5t-5.5 8.5
t-3 7q-77 117 -80 121q-56 77 -142 121q-17 8 -24.5 2t-3.5 -23q4 -23 3.5 -34t-4.5 -33.5t-5 -34.5q-9 -120 -31 -291q-6 -53 -31 -287q0 -2 -1.5 -12.5t-1.5 -14.5t1.5 -11t5.5 -13q46 -58 139 -62t156 50q114 102 135 237zM344 221l-2 -2q2 -11 16 -14q0 13 -14 16z
M592 84q6 1 14.5 4t11.5 4q-8 2 -26 2q-14 0 -47 -1t-51.5 -0.5t-45 3t-49 10t-43.5 19.5q-2 1 -8 6t-8 4.5t-8 -4.5q-11 -15 14 -25q51 -25 160 -32q22 2 86 10zM279 -35q4 4 6 8q0 9 -2 11q-4 -4 -4 -11v-8zM270 -162q2 0 3 -0.5t2 1.5t2 3.5t1.5 4.5t1 5t1 5.5t0.5 5.5
q-4 18 -9 37q-4 -20 -4 -27q0 -4 -2 -12.5t-1.5 -14t5.5 -8.5z" />
    <glyph glyph-name="germandbls" unicode="&#xdf;" horiz-adv-x="1558" 
d="M240 -150q-6 0 -18.5 6.5t-18.5 6.5q-8 1 -24 -2t-23 -2q-50 7 -63.5 25.5t-8.5 60.5q12 162 41 403q17 150 68 473q40 229 51 434q3 33 11 68.5t20.5 78.5t17.5 66q1 6 40.5 18t55.5 15q9 1 10 -4.5t-1.5 -11t1.5 -6.5q7 0 26 -6t32 -3q13 5 24 2t11 -20q1 -6 3.5 -9.5
t8 -5t8 -2t10 0t8.5 0.5q16 2 57.5 3.5t105 4t110.5 4.5q18 2 36 3.5t44 2t43 1t55 -0.5t57 -1t71.5 -1.5t76.5 -1.5q86 -2 221 12q15 2 29.5 -3t31.5 -14.5t27 -12.5q31 -11 -4 -50q-73 -73 -225 -221q-102 -86 -174 -170l-6 -6t-7.5 -6.5t-6 -6.5t-1.5 -7q1 -5 6 -6.5
t11 -0.5t12 0q10 -1 49 -3t63.5 -5t47.5 -8q79 -17 151 -106q40 -50 51 -108.5t-0.5 -113t-40.5 -122.5q-19 -44 -65.5 -119.5t-57.5 -96.5q39 41 95 132q2 3 4 9t3.5 9t5 6t7.5 0q3 -1 4 -3.5t-0.5 -6.5t-3.5 -7t-5.5 -7.5t-4.5 -6.5t-10 -19t-12 -22.5t-12 -22.5
t-14.5 -25.5t-15 -23.5t-17.5 -25.5t-18 -23.5t-20.5 -24.5t-21.5 -21.5q-142 -134 -318 -183q-18 -9 -22 -14q-25 -28 -57.5 -42t-55.5 -15.5t-65 0t-60 0.5q-4 0 -15 2.5t-18 -1.5t-12 -20q-2 -4 -7.5 -5t-14.5 0t-11 1q-46 2 -98.5 39.5t-85.5 124.5q-18 37 14 110
q34 71 115 132q14 13 30.5 14t26.5 -3t27 -14q13 -6 2 -28q-5 -11 -17.5 -31.5t-13.5 -23.5q-33 -77 12 -127q38 -51 113 -29q179 47 307 183.5t160 314.5q15 73 -19.5 122.5t-105.5 55.5q-194 20 -332 -88q-5 -5 -18 1t-18 11l4 27q-31 0 -41.5 23t6.5 54q10 19 41 45
q71 64 139 130.5t163 165t126 130.5q1 1 5.5 5t7.5 6.5t4.5 7.5t0.5 10q-2 6 -14.5 7t-16.5 3t-28 2q-195 2 -379 2q-67 -1 -217 -10q-11 0 -17 -1.5t-9 -8t-4 -9.5t-3 -16q-5 -58 -16.5 -167.5t-16.5 -163.5q-11 -155 -55.5 -439.5t-54.5 -369.5q-3 -20 -8 -57.5t-8.5 -61
t-6 -56t-2.5 -59.5q3 -35 -29 -29h-36zM276 -49q4 -3 8.5 4t4.5 12l-6 35q-4 -2 -5.5 -5.5t-1 -7t-0.5 -7.5q1 -3 -2 -17t2 -14zM481 -55q-7 0 -14 10l-5 5q-6 4 -6 5t1 6q5 3 7.5 3t6.5 -3t6 -4l21 -22q-1 -3 -2.5 -4t-3.5 -1t-3.5 1t-4 2.5t-3.5 1.5z" />
    <glyph glyph-name="agrave" unicode="&#xe0;" horiz-adv-x="1161" 
d="M1067 1593q-14 -4 -26 2.5t-17 18.5q-55 54 -96 80t-121 65q-40 15 -117 27q-16 3 -24 5t-17.5 9.5t-11.5 20.5q-4 28 33 53q5 3 16 11.5t15 11t16 9t18.5 6.5t22 3t26.5 -2q7 -3 36.5 -10t50.5 -19t38 -35q6 -13 35 -27.5t41 -29.5q49 -37 65 -56.5t31 -54.5
q2 -8 11.5 -24t7.5 -27q-2 -24 -33 -37zM74 -350q-12 0 -17 14q-2 17 -4 49.5t-4 48.5v15l-18 -4q-33 -11 -37 -9q-6 3 -11 16t-3 19q7 34 22 116t27.5 141.5t27.5 113.5q59 236 107 346q94 211 289 600q64 129 168 285q11 17 28 33t42 35.5t36 29.5q29 9 84 -12t68 -47
q7 -12 24 -29q0 1 4 13.5t8 17.5q46 78 74 125q4 3 15 3t14 -3q31 -19 41 -62.5t-2 -79.5q-66 -235 -84 -354q-10 -65 -17.5 -137.5t-14 -163t-11.5 -137.5q-1 -23 7 -30t28 -1q24 5 28 4q5 0 17 0.5t19 0.5t16 -1t14.5 -3t7.5 -5q23 -42 23 -102q0 -12 -50 -29
q-8 -6 -28 -10q-71 -17 -83 -32.5t-9 -84.5q2 -43 9 -131t9 -131v-15q-5 5 -9.5 15t-7 18.5t-5 20.5t-3.5 14q-4 -32 -4 -51q-1 -22 -1 -63.5t-1 -63.5q0 -2 -6 -14l-8 12l-55 334q-5 25 -9 98q0 4 2.5 10t7.5 13.5t7 11.5q-127 -37 -250.5 -95.5t-282.5 -146.5
q-7 -4 -12.5 -14.5t-8 -19.5t-6 -25t-5.5 -23q-7 -27 -32 -127.5t-42 -154.5q-3 -12 -10 -25t-17.5 -28t-15.5 -23q-2 -3 -8 -5t-9 -1q-12 4 -16.5 -2t-5 -14t-2.5 -9q-10 -3 -14 -14t-4 -22t-7 -17.5t-24 -1.5zM377 397l16 4h13q184 72 409 156q7 4 12 18q3 145 6 232
t14.5 214t31.5 232q1 3 -5 25l-20 -14q-3 -2 -16 -15l-13 21q-3 -3 -4 -4.5t-2.5 -3.5t-4.5 -5.5t-12 -12.5t-24 -23q4 -26 -3.5 -52t-17.5 -42t-29 -42t-26 -38q-73 -124 -116 -193v-2l-209 -440q-3 -6 0 -15z" />
    <glyph glyph-name="aacute" unicode="&#xe1;" horiz-adv-x="1161" 
d="M731 1573q-33 14 -35 37q-1 11 8 27t11 24q15 33 31.5 52.5t64.5 55.5q12 16 41.5 31.5t36.5 30.5q17 22 38.5 33.5t49 18t35.5 9.5q12 5 27.5 2t22 -2.5t19 -6.5t16.5 -9.5t15 -11t16 -11.5q37 -28 33 -53q-3 -13 -12.5 -20.5t-17 -9.5t-23.5 -5q-82 -13 -119 -26
q-78 -39 -119 -65.5t-98 -80.5q-3 -11 -15.5 -17.5t-25.5 -2.5zM74 -350q-12 0 -17 14q-2 17 -4 49.5t-4 48.5v15l-18 -4q-33 -11 -37 -9q-6 3 -11 16t-3 19q7 34 22 116t27.5 141.5t27.5 113.5q59 236 107 346q94 211 289 600q64 129 168 285q11 17 28 33t42 35.5t36 29.5
q29 9 84 -12t68 -47q7 -12 24 -29q0 1 4 13.5t8 17.5q46 78 74 125q4 3 15 3t14 -3q31 -19 41 -62.5t-2 -79.5q-66 -235 -84 -354q-10 -65 -17.5 -137.5t-14 -163t-11.5 -137.5q-1 -23 7 -30t28 -1q24 5 28 4q5 0 17 0.5t19 0.5t16 -1t14.5 -3t7.5 -5q23 -42 23 -102
q0 -12 -50 -29q-8 -6 -28 -10q-71 -17 -83 -32.5t-9 -84.5q2 -43 9 -131t9 -131v-15q-5 5 -9.5 15t-7 18.5t-5 20.5t-3.5 14q-4 -32 -4 -51q-1 -22 -1 -63.5t-1 -63.5q0 -2 -6 -14l-8 12l-55 334q-5 25 -9 98q0 4 2.5 10t7.5 13.5t7 11.5q-127 -37 -250.5 -95.5
t-282.5 -146.5q-7 -4 -12.5 -14.5t-8 -19.5t-6 -25t-5.5 -23q-7 -27 -32 -127.5t-42 -154.5q-3 -12 -10 -25t-17.5 -28t-15.5 -23q-2 -3 -8 -5t-9 -1q-12 4 -16.5 -2t-5 -14t-2.5 -9q-10 -3 -14 -14t-4 -22t-7 -17.5t-24 -1.5zM377 397l16 4h13q184 72 409 156q7 4 12 18
q3 145 6 232t14.5 214t31.5 232q1 3 -5 25l-20 -14q-3 -2 -16 -15l-13 21q-3 -3 -4 -4.5t-2.5 -3.5t-4.5 -5.5t-12 -12.5t-24 -23q4 -26 -3.5 -52t-17.5 -42t-29 -42t-26 -38q-73 -124 -116 -193v-2l-209 -440q-3 -6 0 -15z" />
    <glyph glyph-name="acircumflex" unicode="&#xe2;" horiz-adv-x="1161" 
d="M1108 1602q-22 30 -73.5 82.5t-73.5 82.5q-25 32 -35 33t-41 -28q-24 -25 -80.5 -73t-81.5 -75q-6 -6 -14 -6t-13 3t-14.5 11t-13.5 10q-29 26 -4 54q21 20 59 58t59 58q8 7 53.5 45t67.5 62q13 15 41 12q25 -5 31 -18q21 -37 73.5 -90.5t67.5 -73.5q36 -45 64 -86
q21 -30 -9 -53q-15 -10 -22.5 -14.5t-20 -5t-20.5 11.5zM74 -350q-12 0 -17 14q-2 17 -4 49.5t-4 48.5v15l-18 -4q-33 -11 -37 -9q-6 3 -11 16t-3 19q7 34 22 116t27.5 141.5t27.5 113.5q59 236 107 346q94 211 289 600q64 129 168 285q11 17 28 33t42 35.5t36 29.5
q29 9 84 -12t68 -47q7 -12 24 -29q0 1 4 13.5t8 17.5q46 78 74 125q4 3 15 3t14 -3q31 -19 41 -62.5t-2 -79.5q-66 -235 -84 -354q-10 -65 -17.5 -137.5t-14 -163t-11.5 -137.5q-1 -23 7 -30t28 -1q24 5 28 4q5 0 17 0.5t19 0.5t16 -1t14.5 -3t7.5 -5q23 -42 23 -102
q0 -12 -50 -29q-8 -6 -28 -10q-71 -17 -83 -32.5t-9 -84.5q2 -43 9 -131t9 -131v-15q-5 5 -9.5 15t-7 18.5t-5 20.5t-3.5 14q-4 -32 -4 -51q-1 -22 -1 -63.5t-1 -63.5q0 -2 -6 -14l-8 12l-55 334q-5 25 -9 98q0 4 2.5 10t7.5 13.5t7 11.5q-127 -37 -250.5 -95.5
t-282.5 -146.5q-7 -4 -12.5 -14.5t-8 -19.5t-6 -25t-5.5 -23q-7 -27 -32 -127.5t-42 -154.5q-3 -12 -10 -25t-17.5 -28t-15.5 -23q-2 -3 -8 -5t-9 -1q-12 4 -16.5 -2t-5 -14t-2.5 -9q-10 -3 -14 -14t-4 -22t-7 -17.5t-24 -1.5zM377 397l16 4h13q184 72 409 156q7 4 12 18
q3 145 6 232t14.5 214t31.5 232q1 3 -5 25l-20 -14q-3 -2 -16 -15l-13 21q-3 -3 -4 -4.5t-2.5 -3.5t-4.5 -5.5t-12 -12.5t-24 -23q4 -26 -3.5 -52t-17.5 -42t-29 -42t-26 -38q-73 -124 -116 -193v-2l-209 -440q-3 -6 0 -15z" />
    <glyph glyph-name="atilde" unicode="&#xe3;" horiz-adv-x="1161" 
d="M754 1638q-16 -27 -29 11q-18 45 -4 65q112 150 217 105q29 -14 37 -35q12 -37 32.5 -40t39.5 13q39 17 61 45q21 26 31 -16q13 -51 -4 -68q-38 -36 -74 -54t-82 -17q-57 0 -98 69q-11 20 -35 8q-55 -30 -92 -86zM74 -350q-12 0 -17 14q-2 17 -4 49.5t-4 48.5v15l-18 -4
q-33 -11 -37 -9q-6 3 -11 16t-3 19q7 34 22 116t27.5 141.5t27.5 113.5q59 236 107 346q94 211 289 600q64 129 168 285q11 17 28 33t42 35.5t36 29.5q29 9 84 -12t68 -47q7 -12 24 -29q0 1 4 13.5t8 17.5q46 78 74 125q4 3 15 3t14 -3q31 -19 41 -62.5t-2 -79.5
q-66 -235 -84 -354q-10 -65 -17.5 -137.5t-14 -163t-11.5 -137.5q-1 -23 7 -30t28 -1q24 5 28 4q5 0 17 0.5t19 0.5t16 -1t14.5 -3t7.5 -5q23 -42 23 -102q0 -12 -50 -29q-8 -6 -28 -10q-71 -17 -83 -32.5t-9 -84.5q2 -43 9 -131t9 -131v-15q-5 5 -9.5 15t-7 18.5t-5 20.5
t-3.5 14q-4 -32 -4 -51q-1 -22 -1 -63.5t-1 -63.5q0 -2 -6 -14l-8 12l-55 334q-5 25 -9 98q0 4 2.5 10t7.5 13.5t7 11.5q-127 -37 -250.5 -95.5t-282.5 -146.5q-7 -4 -12.5 -14.5t-8 -19.5t-6 -25t-5.5 -23q-7 -27 -32 -127.5t-42 -154.5q-3 -12 -10 -25t-17.5 -28
t-15.5 -23q-2 -3 -8 -5t-9 -1q-12 4 -16.5 -2t-5 -14t-2.5 -9q-10 -3 -14 -14t-4 -22t-7 -17.5t-24 -1.5zM377 397l16 4h13q184 72 409 156q7 4 12 18q3 145 6 232t14.5 214t31.5 232q1 3 -5 25l-20 -14q-3 -2 -16 -15l-13 21q-3 -3 -4 -4.5t-2.5 -3.5t-4.5 -5.5t-12 -12.5
t-24 -23q4 -26 -3.5 -52t-17.5 -42t-29 -42t-26 -38q-73 -124 -116 -193v-2l-209 -440q-3 -6 0 -15z" />
    <glyph glyph-name="adieresis" unicode="&#xe4;" horiz-adv-x="1161" 
d="M1083 1663q-73 -6 -96 61q-23 87 45 117q15 7 42.5 15t37.5 12q63 -6 86 -60q22 -48 -14 -94q-34 -44 -101 -51zM705 1692q-40 14 -50.5 49t15.5 67q19 24 52.5 40t65.5 16q29 0 53.5 -17.5t30.5 -42.5q6 -30 -10.5 -62t-46.5 -44q-62 -21 -110 -6zM74 -350q-12 0 -17 14
q-2 17 -4 49.5t-4 48.5v15l-18 -4q-33 -11 -37 -9q-6 3 -11 16t-3 19q7 34 22 116t27.5 141.5t27.5 113.5q59 236 107 346q94 211 289 600q64 129 168 285q11 17 28 33t42 35.5t36 29.5q29 9 84 -12t68 -47q7 -12 24 -29q0 1 4 13.5t8 17.5q46 78 74 125q4 3 15 3t14 -3
q31 -19 41 -62.5t-2 -79.5q-66 -235 -84 -354q-10 -65 -17.5 -137.5t-14 -163t-11.5 -137.5q-1 -23 7 -30t28 -1q24 5 28 4q5 0 17 0.5t19 0.5t16 -1t14.5 -3t7.5 -5q23 -42 23 -102q0 -12 -50 -29q-8 -6 -28 -10q-71 -17 -83 -32.5t-9 -84.5q2 -43 9 -131t9 -131v-15
q-5 5 -9.5 15t-7 18.5t-5 20.5t-3.5 14q-4 -32 -4 -51q-1 -22 -1 -63.5t-1 -63.5q0 -2 -6 -14l-8 12l-55 334q-5 25 -9 98q0 4 2.5 10t7.5 13.5t7 11.5q-127 -37 -250.5 -95.5t-282.5 -146.5q-7 -4 -12.5 -14.5t-8 -19.5t-6 -25t-5.5 -23q-7 -27 -32 -127.5t-42 -154.5
q-3 -12 -10 -25t-17.5 -28t-15.5 -23q-2 -3 -8 -5t-9 -1q-12 4 -16.5 -2t-5 -14t-2.5 -9q-10 -3 -14 -14t-4 -22t-7 -17.5t-24 -1.5zM377 397l16 4h13q184 72 409 156q7 4 12 18q3 145 6 232t14.5 214t31.5 232q1 3 -5 25l-20 -14q-3 -2 -16 -15l-13 21q-3 -3 -4 -4.5
t-2.5 -3.5t-4.5 -5.5t-12 -12.5t-24 -23q4 -26 -3.5 -52t-17.5 -42t-29 -42t-26 -38q-73 -124 -116 -193v-2l-209 -440q-3 -6 0 -15z" />
    <glyph glyph-name="aring" unicode="&#xe5;" horiz-adv-x="1161" 
d="M975 1606q-44 -25 -103.5 -4.5t-87.5 69.5q-8 16 -8 60q3 89 96 155q29 19 72 8q7 -2 21.5 -5t21.5 -5q39 -9 59 -24t29 -43q12 -39 0 -72q-28 -99 -100 -139zM950 1688q49 26 35 90l-18 37q-3 5 -9.5 8t-7.5 0q-21 0 -34 -10t-23 -23.5t-21 -17.5l-2 -3q-6 -28 7 -55
q10 -24 31.5 -31t41.5 5zM74 -350q-12 0 -17 14q-2 17 -4 49.5t-4 48.5v15l-18 -4q-33 -11 -37 -9q-6 3 -11 16t-3 19q7 34 22 116t27.5 141.5t27.5 113.5q59 236 107 346q94 211 289 600q64 129 168 285q11 17 28 33t42 35.5t36 29.5q29 9 84 -12t68 -47q7 -12 24 -29
q0 1 4 13.5t8 17.5q46 78 74 125q4 3 15 3t14 -3q31 -19 41 -62.5t-2 -79.5q-66 -235 -84 -354q-10 -65 -17.5 -137.5t-14 -163t-11.5 -137.5q-1 -23 7 -30t28 -1q24 5 28 4q5 0 17 0.5t19 0.5t16 -1t14.5 -3t7.5 -5q23 -42 23 -102q0 -12 -50 -29q-8 -6 -28 -10
q-71 -17 -83 -32.5t-9 -84.5q2 -43 9 -131t9 -131v-15q-5 5 -9.5 15t-7 18.5t-5 20.5t-3.5 14q-4 -32 -4 -51q-1 -22 -1 -63.5t-1 -63.5q0 -2 -6 -14l-8 12l-55 334q-5 25 -9 98q0 4 2.5 10t7.5 13.5t7 11.5q-127 -37 -250.5 -95.5t-282.5 -146.5q-7 -4 -12.5 -14.5
t-8 -19.5t-6 -25t-5.5 -23q-7 -27 -32 -127.5t-42 -154.5q-3 -12 -10 -25t-17.5 -28t-15.5 -23q-2 -3 -8 -5t-9 -1q-12 4 -16.5 -2t-5 -14t-2.5 -9q-10 -3 -14 -14t-4 -22t-7 -17.5t-24 -1.5zM377 397l16 4h13q184 72 409 156q7 4 12 18q3 145 6 232t14.5 214t31.5 232
q1 3 -5 25l-20 -14q-3 -2 -16 -15l-13 21q-3 -3 -4 -4.5t-2.5 -3.5t-4.5 -5.5t-12 -12.5t-24 -23q4 -26 -3.5 -52t-17.5 -42t-29 -42t-26 -38q-73 -124 -116 -193v-2l-209 -440q-3 -6 0 -15z" />
    <glyph glyph-name="ae" unicode="&#xe6;" horiz-adv-x="1691" 
d="M63 -172l-14 25q-3 2 -10.5 2.5t-9.5 1.5q-11 0 -11 6q-35 82 2 207q6 21 29.5 84.5t30.5 101.5q3 13 -23 43q-2 3 -6.5 8.5t-6.5 9t-3 8t3.5 9t14.5 8.5l-6 12q-16 15 -9 30t24 17q31 6 54 20t38 36t25 41.5t21.5 48.5t20.5 45q17 31 126 231.5t165 306.5l90 181
q14 29 29 45t45 24q41 12 89.5 -55.5t74.5 -163.5q21 35 47 66q3 15 -11.5 57t5.5 78q15 5 46.5 26t49.5 25q27 7 80.5 11t77.5 10q51 9 159.5 34t167.5 35q12 1 40 7t44 8t38 -4t38 -23q9 -8 16 -17t13 -23.5t8.5 -21t8.5 -25.5t7 -22q2 -11 -5 -28.5t-17 -26.5
q-2 -6 -23.5 -2t-29.5 2q-14 -1 -46.5 -7t-52.5 -7q-43 -8 -145 -23t-156 -26q-74 -10 -96 -74q-81 -248 -141 -412q-1 -4 -2 -12t-2 -12l24 6q45 10 140 33.5t145 33.5q11 3 24 3.5t22 0t25.5 -2t22.5 -1.5q6 -2 14.5 -14t10.5 -14q32 -40 24 -82q-3 -14 -12 -29
q-3 3 -4.5 12.5t0.5 12.5l-15 -8l-2 -7l11 -4q-27 -34 -62.5 -52t-92.5 -31.5t-77 -20.5l-243 -64q-9 -4 -9 -110v-27.5v-29.5t0.5 -28t1.5 -31.5t2.5 -30.5t4 -35.5t6 -36t9 -41.5t11.5 -43q567 163 617 178q6 2 18 3.5t14 2.5q13 8 27 5.5t14 -26.5l13 5q6 -2 3 -7
q-1 -1 -1 -2q-4 -3 -25 -24q6 1 18 2t19 2h12q-9 -9 -18 -27v-6q-74 -51 -84 -59q-4 -3 -4 -23q7 -3 6.5 -9.5t-14.5 -18.5q-321 -148 -369 -170q-27 -12 -59 -19q-79 -13 -163.5 -14.5t-150.5 2.5q-13 0 -25.5 1.5t-27 5t-24.5 5.5t-27 7.5t-24.5 8l-27 9t-24.5 8.5l-6 53
q-3 7 -10.5 20.5t-10.5 20.5q14 5 42 18.5t44 18.5l31 25l-6 10l-4 12q-2 16 -8.5 45t-8.5 43q-4 26 -10 77t-10 77q-9 17 -18 14q-64 -16 -190.5 -47.5t-190.5 -46.5q-7 -3 -16.5 -12t-12.5 -17q-22 -55 -75 -194t-85 -215q-1 -4 -6.5 -8.5t-13 -9.5t-11.5 -9zM952 799
q11 0 11 18q40 135 59 217l-10 -14q-4 -11 -8 -29q-4 -14 -23.5 -77t-30.5 -95q0 -3 1 -9.5t1 -10.5zM399 528q137 27 244 45l16 7q-1 32 -4.5 185.5t-3.5 227.5l-16 -20q-42 -70 -123 -213t-123 -213l-7 -11q-6 -10 -4 -12t21 4zM942 625l406 110l6 6h-11
q-162 -37 -305 -73q-24 -10 -41 -13q-2 -2 -20 -6q-20 -10 -25 -10q-6 0 -12 2zM924 547q36 11 165 51.5t199 63.5q6 1 17.5 5t15.5 5q7 5 18 14.5t17 13.5q-2 1 -6 3.5t-6.5 4.5t-4.5 1q-15 -5 -151 -56q-3 0 -11.5 -2t-11.5 -2l-12 -6q-15 -7 -25 -10l-28 -8l-39 -9
l-21 -6q-6 0 -20 -14q-13 0 -37 -4q-2 -1 -4.5 -2t-4 -1.5t-3.5 -0.5l-35 -10q-8 -2 -14 -5zM983 -195q-140 -10 -227 43q-4 1 -5.5 12.5t1.5 14.5q7 8 19.5 15t19.5 4q120 -31 262 0q47 15 80 20q12 -2 28 -12l-6 -13q-1 -1 -7 -6t-9 -6q-28 -5 -80.5 -16.5t-75.5 -16.5
q-7 -1 -29 -12q20 -8 31 -8q5 -3 13.5 -1t15.5 1.5t4 -6.5q-5 -1 -16.5 -7.5t-18.5 -5.5zM922 -168q10 0 14 4q-2 0 -4.5 3t-5.5 3l-21 -6z" />
    <glyph glyph-name="ccedilla" unicode="&#xe7;" horiz-adv-x="1210" 
d="M1182 383q18 18 28 18q-1 -2 -2 -6t-2 -6q-9 -17 -28.5 -55.5t-34.5 -67t-31 -53.5q-51 -78 -114.5 -144t-159.5 -153q38 21 115 81t112 103q-1 -4 -1 -11.5t-1 -13t-4 -9.5q-68 -98 -163 -161t-230 -116l-35 -12q12 -16 14 -29l-10 2l-19 23q-2 -2 -6 -2
q4 -4 11.5 -13.5t11.5 -13.5l8 -2h12l23 -16q36 -29 51 -78t6 -103q-14 -83 -71 -129q-76 -61 -156 -55q-51 5 -123 51q-43 27 -64 64q-11 12 -12.5 31.5t8.5 33.5q13 13 27 13q13 0 31 -15q34 -39 80 -63q31 -17 53 -17q37 0 78 35q34 34 39 64q6 28 -13 63q-4 10 -9.5 21
t-12.5 23.5t-10 19.5q-7 8 -19.5 21.5t-22.5 25t-18 22.5q-135 -9 -241.5 68t-165.5 211q-149 332 -52 702q119 441 459 721q118 96 291 125q67 13 122 -32.5t75 -114.5q9 -40 8.5 -68.5t-11.5 -62t-22.5 -58t-25 -57t-19.5 -58.5q-5 -25 -21 -57q-3 -4 -8 -7t-12 -6t-10 -5
q-1 4 -3 9.5t-3 10t0 8.5q1 11 16 50q2 8 5 23t5 22q-6 -3 -20.5 -7.5t-20.5 -7.5q-223 -101 -321 -223q-29 -38 -55 -90.5t-38.5 -86t-35.5 -99.5q0 -2 -11 -19q-5 0 -7.5 8t-0.5 13q17 126 111 288q14 24 92 136q6 8 10 24q-16 -10 -18 -14l-94 -127q-5 -7 -9 -1v5
q14 29 42.5 84t39.5 78q-35 -39 -114 -191q-8 -18 -21.5 -52t-21.5 -52q-13 -56 -19 -72q-24 -82 -38 -149.5t-19 -144t8 -151t45 -145.5q9 -22 24 -42.5t42 -49.5t34 -37l6 -6q7 -7 11 -8q19 -5 61 -27q35 -12 69 -14t63 4t59.5 21t56 32t55.5 41q78 65 141.5 146
t133.5 192q7 12 16.5 24t21 25t17.5 21l8 -4q-3 -7 -10 -20.5t-10 -20.5q-1 -3 3 -15.5t7 -17.5q-2 -3 -3.5 -6l-3.5 -7t-3 -7zM414 956v-12q8 4 10 6q63 125 115 201q7 7 30 30.5t29.5 29.5t25.5 24t29 26.5t27 23t33 26t35 24.5q69 48 90 66q10 10 7 10q-1 0 -5 -2
q-6 -2 -9 -2q-8 -6 -32.5 -16.5t-34.5 -18.5q-8 -7 -33 -21t-35 -24q-64 -53 -87.5 -73t-58 -55t-54.5 -66q-38 -58 -82 -177zM684 1171l184 144q-29 -8 -59 -26t-44.5 -30t-48.5 -44t-42 -39q-1 -1 -1 -4.5t-1 -4.5q8 0 12 4z" />
    <glyph glyph-name="egrave" unicode="&#xe8;" horiz-adv-x="1239" 
d="M864 1405q-14 -4 -26 2.5t-17 17.5q-55 54 -96.5 81t-120.5 65q-36 13 -117 26q-16 3 -24 5t-17.5 9.5t-11.5 20.5q-5 29 33 54q4 3 13.5 9.5t14 10t13 8.5t15 7t16 4t20.5 1.5t23 -2.5q8 -3 37 -10t50 -18.5t38 -34.5q6 -13 34.5 -27.5t40.5 -29.5q49 -37 65.5 -57
t31.5 -54q1 -7 10.5 -23.5t7.5 -27.5q-2 -24 -33 -37zM297 -154q-47 -8 -91.5 11.5t-75 55.5t-49.5 79t-20 82q0 46 20.5 64t70.5 14q4 -1 13.5 -1t14.5 -1q-12 16 -12 26l-25 172q-26 146 -32 172q-9 39 12 74t57 41q12 0 17 14l122 430q1 2 1.5 6.5t1.5 6.5
q-59 -20 -80 -35q-70 -54 -113 18q-56 96 -20 174q13 23 49 27q54 10 231 33q8 0 23 10q66 47 155 16q11 -5 24.5 -6.5t36 -0.5t27.5 1q46 1 189.5 4.5t220.5 3.5q13 0 27.5 -8t17.5 -18q9 -22 18 -90q0 -4 -26 -9q-41 -2 -122.5 -5t-121.5 -5q-2 0 -6.5 -2t-7.5 -2
q12 -6 14 -6q30 1 89 4t87 4h10l-2 -16q-25 -1 -105 -4t-122 -6q-16 -2 -87 -9.5t-110 -13.5q-78 -11 -108 -109q-14 -48 -42.5 -163.5t-47.5 -176.5l-12 -2l10 84v13q-1 -3 -3.5 -6.5t-2.5 -4.5q-5 -18 -13.5 -55t-13.5 -55q-6 -17 0 -23t23 -6l413 6q76 -5 97 -10
q11 -3 16.5 -6t11.5 -14t-2 -29q-7 -36 -26 -47.5t-50.5 -11t-42.5 -3.5q-26 -8 -55 -13.5t-69 -10.5t-58 -8q-3 -2 -3 -5t3 -3q4 0 48 5.5t67 6.5v-10q-29 -6 -84 -11.5t-80 -9.5q-106 -21 -209 -33q-57 -10 -57 -75q0 -30 1 -63.5t2.5 -74t2.5 -63.5l-21 2l-34 37
q-7 -13 -5 -15q2 -3 11.5 -18t16.5 -21.5t13 -5.5q71 0 253.5 2.5t281.5 1.5q79 -3 324 -26q5 0 10.5 -4t12 -11t9.5 -10q-3 -3 -7 -9.5t-8.5 -11t-8.5 -5.5q-103 -49 -176 -68q-61 -11 -277 -39q-6 -1 -8.5 -3t-5 -6.5t-8.5 -8.5q-5 0 -5 -6l13 2q62 6 163 22t140 21
l14 -13q-8 -8 -14 -10q-425 -62 -721 -115zM193 1120q113 34 137 39q1 1 14 6l-16 6l-138 -34q-2 -1 -4.5 -7.5t-3.5 -7.5q4 -2 11 -2zM299 -53l453 47l8 2q-2 2 -8 2l-131 -4q-60 -7 -172.5 -22.5t-149.5 -20.5v-4zM336 -123q52 6 160 23.5t153 23.5q-3 14 -14 19
q-6 0 -7.5 9.5t1.5 10.5q-2 0 -6.5 1t-6.5 1l-43 -6q-6 0 -34 -4q5 -3 15.5 -6t16.5 -6q0 -1 1 -3t1 -3q-2 0 -7 -5.5t-7 -5.5q-39 -8 -112 -20.5t-111 -20.5v-8zM358 -88q27 1 107 16q7 0 20 9q-3 -1 -11 0.5t-11 1.5q-23 0 -55 -7q-2 0 -4 3t-1 4l11 6l-88 -11
q-9 -2 -21 -14q1 1 2 -0.5t2 -1.5q24 -6 49 -6z" />
    <glyph glyph-name="eacute" unicode="&#xe9;" horiz-adv-x="1239" 
d="M528 1384q-32 14 -34 37q-1 11 7.5 27.5t10.5 24.5q15 33 31.5 52.5t64.5 55.5q12 16 41.5 31t36.5 30q17 22 38.5 33.5t49 18.5t35.5 10q11 5 27.5 2t22.5 -2.5t19 -6.5t16.5 -9.5t15.5 -11t16 -11.5q36 -27 32 -53q-3 -13 -12.5 -20.5t-17 -9.5t-23.5 -5
q-77 -12 -119 -27q-56 -28 -81 -41.5t-61 -40t-75 -63.5q-3 -11 -15.5 -18t-25.5 -3zM297 -154q-47 -8 -91.5 11.5t-75 55.5t-49.5 79t-20 82q0 46 20.5 64t70.5 14q4 -1 13.5 -1t14.5 -1q-12 16 -12 26l-25 172q-26 146 -32 172q-9 39 12 74t57 41q12 0 17 14l122 430
q1 2 1.5 6.5t1.5 6.5q-59 -20 -80 -35q-70 -54 -113 18q-56 96 -20 174q13 23 49 27q54 10 231 33q8 0 23 10q66 47 155 16q11 -5 24.5 -6.5t36 -0.5t27.5 1q46 1 189.5 4.5t220.5 3.5q13 0 27.5 -8t17.5 -18q9 -22 18 -90q0 -4 -26 -9q-41 -2 -122.5 -5t-121.5 -5
q-2 0 -6.5 -2t-7.5 -2q12 -6 14 -6q30 1 89 4t87 4h10l-2 -16q-25 -1 -105 -4t-122 -6q-16 -2 -87 -9.5t-110 -13.5q-78 -11 -108 -109q-14 -48 -42.5 -163.5t-47.5 -176.5l-12 -2l10 84v13q-1 -3 -3.5 -6.5t-2.5 -4.5q-5 -18 -13.5 -55t-13.5 -55q-6 -17 0 -23t23 -6l413 6
q76 -5 97 -10q11 -3 16.5 -6t11.5 -14t-2 -29q-7 -36 -26 -47.5t-50.5 -11t-42.5 -3.5q-26 -8 -55 -13.5t-69 -10.5t-58 -8q-3 -2 -3 -5t3 -3q4 0 48 5.5t67 6.5v-10q-29 -6 -84 -11.5t-80 -9.5q-106 -21 -209 -33q-57 -10 -57 -75q0 -30 1 -63.5t2.5 -74t2.5 -63.5l-21 2
l-34 37q-7 -13 -5 -15q2 -3 11.5 -18t16.5 -21.5t13 -5.5q71 0 253.5 2.5t281.5 1.5q79 -3 324 -26q5 0 10.5 -4t12 -11t9.5 -10q-3 -3 -7 -9.5t-8.5 -11t-8.5 -5.5q-103 -49 -176 -68q-61 -11 -277 -39q-6 -1 -8.5 -3t-5 -6.5t-8.5 -8.5q-5 0 -5 -6l13 2q62 6 163 22
t140 21l14 -13q-8 -8 -14 -10q-425 -62 -721 -115zM193 1120q113 34 137 39q1 1 14 6l-16 6l-138 -34q-2 -1 -4.5 -7.5t-3.5 -7.5q4 -2 11 -2zM299 -53l453 47l8 2q-2 2 -8 2l-131 -4q-60 -7 -172.5 -22.5t-149.5 -20.5v-4zM336 -123q52 6 160 23.5t153 23.5q-3 14 -14 19
q-6 0 -7.5 9.5t1.5 10.5q-2 0 -6.5 1t-6.5 1l-43 -6q-6 0 -34 -4q5 -3 15.5 -6t16.5 -6q0 -1 1 -3t1 -3q-2 0 -7 -5.5t-7 -5.5q-39 -8 -112 -20.5t-111 -20.5v-8zM358 -88q27 1 107 16q7 0 20 9q-3 -1 -11 0.5t-11 1.5q-23 0 -55 -7q-2 0 -4 3t-1 4l11 6l-88 -11
q-9 -2 -21 -14q1 1 2 -0.5t2 -1.5q24 -6 49 -6z" />
    <glyph glyph-name="ecircumflex" unicode="&#xea;" horiz-adv-x="1239" 
d="M905 1413q-22 30 -73.5 83t-73.5 83q-25 32 -35 32.5t-41 -28.5q-24 -25 -80.5 -72.5t-81.5 -74.5q-6 -6 -14 -6t-13 3t-14.5 11t-13.5 10q-29 25 -4 53q20 19 59.5 58t59.5 59q6 5 52 44t68 63q13 15 41 12q25 -5 31 -19q21 -37 73 -89.5t68 -73.5q36 -45 64 -86
q22 -31 -8 -54q-15 -10 -22.5 -14.5t-20.5 -5t-21 11.5zM297 -154q-47 -8 -91.5 11.5t-75 55.5t-49.5 79t-20 82q0 46 20.5 64t70.5 14q4 -1 13.5 -1t14.5 -1q-12 16 -12 26l-25 172q-26 146 -32 172q-9 39 12 74t57 41q12 0 17 14l122 430q1 2 1.5 6.5t1.5 6.5
q-59 -20 -80 -35q-70 -54 -113 18q-56 96 -20 174q13 23 49 27q54 10 231 33q8 0 23 10q66 47 155 16q11 -5 24.5 -6.5t36 -0.5t27.5 1q46 1 189.5 4.5t220.5 3.5q13 0 27.5 -8t17.5 -18q9 -22 18 -90q0 -4 -26 -9q-41 -2 -122.5 -5t-121.5 -5q-2 0 -6.5 -2t-7.5 -2
q12 -6 14 -6q30 1 89 4t87 4h10l-2 -16q-25 -1 -105 -4t-122 -6q-16 -2 -87 -9.5t-110 -13.5q-78 -11 -108 -109q-14 -48 -42.5 -163.5t-47.5 -176.5l-12 -2l10 84v13q-1 -3 -3.5 -6.5t-2.5 -4.5q-5 -18 -13.5 -55t-13.5 -55q-6 -17 0 -23t23 -6l413 6q76 -5 97 -10
q11 -3 16.5 -6t11.5 -14t-2 -29q-7 -36 -26 -47.5t-50.5 -11t-42.5 -3.5q-26 -8 -55 -13.5t-69 -10.5t-58 -8q-3 -2 -3 -5t3 -3q4 0 48 5.5t67 6.5v-10q-29 -6 -84 -11.5t-80 -9.5q-106 -21 -209 -33q-57 -10 -57 -75q0 -30 1 -63.5t2.5 -74t2.5 -63.5l-21 2l-34 37
q-7 -13 -5 -15q2 -3 11.5 -18t16.5 -21.5t13 -5.5q71 0 253.5 2.5t281.5 1.5q79 -3 324 -26q5 0 10.5 -4t12 -11t9.5 -10q-3 -3 -7 -9.5t-8.5 -11t-8.5 -5.5q-103 -49 -176 -68q-61 -11 -277 -39q-6 -1 -8.5 -3t-5 -6.5t-8.5 -8.5q-5 0 -5 -6l13 2q62 6 163 22t140 21
l14 -13q-8 -8 -14 -10q-425 -62 -721 -115zM193 1120q113 34 137 39q1 1 14 6l-16 6l-138 -34q-2 -1 -4.5 -7.5t-3.5 -7.5q4 -2 11 -2zM299 -53l453 47l8 2q-2 2 -8 2l-131 -4q-60 -7 -172.5 -22.5t-149.5 -20.5v-4zM336 -123q52 6 160 23.5t153 23.5q-3 14 -14 19
q-6 0 -7.5 9.5t1.5 10.5q-2 0 -6.5 1t-6.5 1l-43 -6q-6 0 -34 -4q5 -3 15.5 -6t16.5 -6q0 -1 1 -3t1 -3q-2 0 -7 -5.5t-7 -5.5q-39 -8 -112 -20.5t-111 -20.5v-8zM358 -88q27 1 107 16q7 0 20 9q-3 -1 -11 0.5t-11 1.5q-23 0 -55 -7q-2 0 -4 3t-1 4l11 6l-88 -11
q-9 -2 -21 -14q1 1 2 -0.5t2 -1.5q24 -6 49 -6z" />
    <glyph glyph-name="edieresis" unicode="&#xeb;" horiz-adv-x="1239" 
d="M881 1475q-74 -6 -97 61q-23 87 45 117q15 7 42 14.5t38 11.5q63 -6 86 -59q22 -48 -14 -94q-34 -45 -100 -51zM502 1503q-40 14 -50.5 49.5t15.5 67.5q19 23 53 39t66 16q29 0 53.5 -17t30.5 -42q6 -30 -11 -62.5t-47 -44.5q-62 -21 -110 -6zM297 -154
q-47 -8 -91.5 11.5t-75 55.5t-49.5 79t-20 82q0 46 20.5 64t70.5 14q4 -1 13.5 -1t14.5 -1q-12 16 -12 26l-25 172q-26 146 -32 172q-9 39 12 74t57 41q12 0 17 14l122 430q1 2 1.5 6.5t1.5 6.5q-59 -20 -80 -35q-70 -54 -113 18q-56 96 -20 174q13 23 49 27q54 10 231 33
q8 0 23 10q66 47 155 16q11 -5 24.5 -6.5t36 -0.5t27.5 1q46 1 189.5 4.5t220.5 3.5q13 0 27.5 -8t17.5 -18q9 -22 18 -90q0 -4 -26 -9q-41 -2 -122.5 -5t-121.5 -5q-2 0 -6.5 -2t-7.5 -2q12 -6 14 -6q30 1 89 4t87 4h10l-2 -16q-25 -1 -105 -4t-122 -6q-16 -2 -87 -9.5
t-110 -13.5q-78 -11 -108 -109q-14 -48 -42.5 -163.5t-47.5 -176.5l-12 -2l10 84v13q-1 -3 -3.5 -6.5t-2.5 -4.5q-5 -18 -13.5 -55t-13.5 -55q-6 -17 0 -23t23 -6l413 6q76 -5 97 -10q11 -3 16.5 -6t11.5 -14t-2 -29q-7 -36 -26 -47.5t-50.5 -11t-42.5 -3.5
q-26 -8 -55 -13.5t-69 -10.5t-58 -8q-3 -2 -3 -5t3 -3q4 0 48 5.5t67 6.5v-10q-29 -6 -84 -11.5t-80 -9.5q-106 -21 -209 -33q-57 -10 -57 -75q0 -30 1 -63.5t2.5 -74t2.5 -63.5l-21 2l-34 37q-7 -13 -5 -15q2 -3 11.5 -18t16.5 -21.5t13 -5.5q71 0 253.5 2.5t281.5 1.5
q79 -3 324 -26q5 0 10.5 -4t12 -11t9.5 -10q-3 -3 -7 -9.5t-8.5 -11t-8.5 -5.5q-103 -49 -176 -68q-61 -11 -277 -39q-6 -1 -8.5 -3t-5 -6.5t-8.5 -8.5q-5 0 -5 -6l13 2q62 6 163 22t140 21l14 -13q-8 -8 -14 -10q-425 -62 -721 -115zM193 1120q113 34 137 39q1 1 14 6
l-16 6l-138 -34q-2 -1 -4.5 -7.5t-3.5 -7.5q4 -2 11 -2zM299 -53l453 47l8 2q-2 2 -8 2l-131 -4q-60 -7 -172.5 -22.5t-149.5 -20.5v-4zM336 -123q52 6 160 23.5t153 23.5q-3 14 -14 19q-6 0 -7.5 9.5t1.5 10.5q-2 0 -6.5 1t-6.5 1l-43 -6q-6 0 -34 -4q5 -3 15.5 -6t16.5 -6
q0 -1 1 -3t1 -3q-2 0 -7 -5.5t-7 -5.5q-39 -8 -112 -20.5t-111 -20.5v-8zM358 -88q27 1 107 16q7 0 20 9q-3 -1 -11 0.5t-11 1.5q-23 0 -55 -7q-2 0 -4 3t-1 4l11 6l-88 -11q-9 -2 -21 -14q1 1 2 -0.5t2 -1.5q24 -6 49 -6z" />
    <glyph glyph-name="igrave" unicode="&#xec;" horiz-adv-x="649" 
d="M588 1665q-14 -4 -26 2.5t-17 18.5q-55 54 -96 80t-121 65q-40 15 -117 27q-17 3 -24 4.5t-17 9t-12 20.5q-5 30 32 54q4 3 15.5 11.5t15.5 11t16.5 9.5t18.5 6.5t22 2.5t27 -2q7 -3 36.5 -10t50.5 -19t38 -35q6 -13 35 -27.5t41 -29.5q49 -37 65 -56.5t31 -54.5
q2 -8 11.5 -24t7.5 -27q-2 -24 -33 -37zM358 -268q-19 9 -28 28q-4 9 -7.5 12.5t-6 1t-3.5 -11.5q0 -4 -2.5 -8t-7 -9t-6.5 -7q-3 2 -11.5 7t-13.5 9.5t-6 9.5q-4 19 -12 23t-25 -2q-38 -13 -64 5t-34 58q-26 134 -28 307.5t6 309.5q16 531 133 952q3 9 10.5 18t19 19.5
t15.5 15.5q7 7 12 21q22 50 39 80q2 4 6.5 6.5t12 5.5t8.5 4h38q12 16 19 23q13 -22 24 0l9 16q23 -15 37 -20q15 -5 16 -7q3 -4 9.5 -11.5t10.5 -12.5t7 -11t2 -10q-2 -30 -13 -85t-14 -72q-6 -44 -14.5 -132t-14.5 -132q0 -4 -5.5 -12t-6.5 -11q0 4 -1 12.5t-1 12.5
q8 116 4 172h-4q-12 -116 -29 -424q-3 -36 -18 -443q-5 4 -10 4q0 -138 -2 -208q-5 -260 -5 -316q0 -12 3 -41.5t2 -44.5q-4 -36 -23 -90q-1 -4 -11.5 -9t-15.5 -3zM203 748v6q41 262 41 264q2 21 22.5 172.5t26.5 230.5l-6 -2q-6 -30 -21.5 -99t-21.5 -106l-21 -120
l-26 -252h4v-88q0 -2 2 -6zM350 287q0 -3 4 -3t4 3l35 573l2 49l4 64l11 284v15l-7 -8q-34 -257 -38 -490l-9 -192h-6v-295z" />
    <glyph glyph-name="iacute" unicode="&#xed;" horiz-adv-x="649" 
d="M252 1645q-33 14 -35 36q-1 11 8 27.5t11 24.5q15 33 31.5 52.5t64.5 55.5q12 16 41.5 31.5t36.5 30.5q17 22 38 33.5t48.5 18t35.5 9.5q11 5 27.5 2t22.5 -2.5t19 -6.5t16.5 -9.5t15.5 -11t16 -11.5q37 -28 33 -53q-3 -13 -12.5 -20.5t-17 -9.5t-23.5 -5
q-77 -12 -119 -27q-56 -28 -81 -41.5t-61 -40t-75 -63.5q-3 -11 -15.5 -17.5t-25.5 -2.5zM358 -268q-19 9 -28 28q-4 9 -7.5 12.5t-6 1t-3.5 -11.5q0 -4 -2.5 -8t-7 -9t-6.5 -7q-3 2 -11.5 7t-13.5 9.5t-6 9.5q-4 19 -12 23t-25 -2q-38 -13 -64 5t-34 58q-26 134 -28 307.5
t6 309.5q16 531 133 952q3 9 10.5 18t19 19.5t15.5 15.5q7 7 12 21q22 50 39 80q2 4 6.5 6.5t12 5.5t8.5 4h38q12 16 19 23q13 -22 24 0l9 16q23 -15 37 -20q15 -5 16 -7q3 -4 9.5 -11.5t10.5 -12.5t7 -11t2 -10q-2 -30 -13 -85t-14 -72q-6 -44 -14.5 -132t-14.5 -132
q0 -4 -5.5 -12t-6.5 -11q0 4 -1 12.5t-1 12.5q8 116 4 172h-4q-12 -116 -29 -424q-3 -36 -18 -443q-5 4 -10 4q0 -138 -2 -208q-5 -260 -5 -316q0 -12 3 -41.5t2 -44.5q-4 -36 -23 -90q-1 -4 -11.5 -9t-15.5 -3zM203 748v6q41 262 41 264q2 21 22.5 172.5t26.5 230.5l-6 -2
q-6 -30 -21.5 -99t-21.5 -106l-21 -120l-26 -252h4v-88q0 -2 2 -6zM350 287q0 -3 4 -3t4 3l35 573l2 49l4 64l11 284v15l-7 -8q-34 -257 -38 -490l-9 -192h-6v-295z" />
    <glyph glyph-name="icircumflex" unicode="&#xee;" horiz-adv-x="649" 
d="M629 1673q-22 30 -74 83t-74 83q-25 32 -34.5 32.5t-40.5 -28.5q-24 -25 -80.5 -72.5t-81.5 -74.5q-6 -6 -14 -6t-13.5 3t-15.5 11t-13 10q-29 25 -4 53q21 20 59.5 59t59.5 58q8 7 53.5 45t67.5 62q13 15 41 12q25 -5 31 -18q21 -37 73.5 -90.5t67.5 -73.5
q28 -36 63 -86q22 -31 -8 -54q-15 -10 -22.5 -14.5t-20 -5t-20.5 11.5zM358 -268q-19 9 -28 28q-4 9 -7.5 12.5t-6 1t-3.5 -11.5q0 -4 -2.5 -8t-7 -9t-6.5 -7q-3 2 -11.5 7t-13.5 9.5t-6 9.5q-4 19 -12 23t-25 -2q-38 -13 -64 5t-34 58q-26 134 -28 307.5t6 309.5
q16 531 133 952q3 9 10.5 18t19 19.5t15.5 15.5q7 7 12 21q22 50 39 80q2 4 6.5 6.5t12 5.5t8.5 4h38q12 16 19 23q13 -22 24 0l9 16q23 -15 37 -20q15 -5 16 -7q3 -4 9.5 -11.5t10.5 -12.5t7 -11t2 -10q-2 -30 -13 -85t-14 -72q-6 -44 -14.5 -132t-14.5 -132q0 -4 -5.5 -12
t-6.5 -11q0 4 -1 12.5t-1 12.5q8 116 4 172h-4q-12 -116 -29 -424q-3 -36 -18 -443q-5 4 -10 4q0 -138 -2 -208q-5 -260 -5 -316q0 -12 3 -41.5t2 -44.5q-4 -36 -23 -90q-1 -4 -11.5 -9t-15.5 -3zM203 748v6q41 262 41 264q2 21 22.5 172.5t26.5 230.5l-6 -2
q-6 -30 -21.5 -99t-21.5 -106l-21 -120l-26 -252h4v-88q0 -2 2 -6zM350 287q0 -3 4 -3t4 3l35 573l2 49l4 64l11 284v15l-7 -8q-34 -257 -38 -490l-9 -192h-6v-295z" />
    <glyph glyph-name="idieresis" unicode="&#xef;" horiz-adv-x="649" 
d="M604 1735q-73 -6 -96 61q-23 87 45 117q15 7 42 14.5t38 11.5q63 -6 86 -59q22 -48 -14 -94q-34 -44 -101 -51zM225 1763q-40 14 -50.5 49.5t15.5 67.5q19 23 53 39t66 16q29 0 53.5 -17t30.5 -42q6 -30 -10.5 -62.5t-46.5 -44.5q-63 -22 -111 -6zM358 -268q-19 9 -28 28
q-4 9 -7.5 12.5t-6 1t-3.5 -11.5q0 -4 -2.5 -8t-7 -9t-6.5 -7q-3 2 -11.5 7t-13.5 9.5t-6 9.5q-4 19 -12 23t-25 -2q-38 -13 -64 5t-34 58q-26 134 -28 307.5t6 309.5q16 531 133 952q3 9 10.5 18t19 19.5t15.5 15.5q7 7 12 21q22 50 39 80q2 4 6.5 6.5t12 5.5t8.5 4h38
q12 16 19 23q13 -22 24 0l9 16q23 -15 37 -20q15 -5 16 -7q3 -4 9.5 -11.5t10.5 -12.5t7 -11t2 -10q-2 -30 -13 -85t-14 -72q-6 -44 -14.5 -132t-14.5 -132q0 -4 -5.5 -12t-6.5 -11q0 4 -1 12.5t-1 12.5q8 116 4 172h-4q-12 -116 -29 -424q-3 -36 -18 -443q-5 4 -10 4
q0 -138 -2 -208q-5 -260 -5 -316q0 -12 3 -41.5t2 -44.5q-4 -36 -23 -90q-1 -4 -11.5 -9t-15.5 -3zM203 748v6q41 262 41 264q2 21 22.5 172.5t26.5 230.5l-6 -2q-6 -30 -21.5 -99t-21.5 -106l-21 -120l-26 -252h4v-88q0 -2 2 -6zM350 287q0 -3 4 -3t4 3l35 573l2 49l4 64
l11 284v15l-7 -8q-34 -257 -38 -490l-9 -192h-6v-295z" />
    <glyph glyph-name="eth" unicode="&#xf0;" horiz-adv-x="1157" 
d="M993 1286q158 -175 142 -446q-17 -325 -160 -523q-158 -218 -348 -307q-51 -25 -117 -41q-2 -2 -25 4q8 12 17 21q22 18 69 54t83 66t65 60q21 22 43 51.5t36 50t39 59.5t35 54q9 15 24.5 44t18.5 34q-83 -108 -143 -180q-129 -164 -295 -242q-24 -12 -52.5 -23.5
t-63 -24t-54.5 -20.5q-106 -42 -223 64q-32 29 -44 67.5t-10 71t13 78.5q4 19 23 52t24 48q9 27 23 134q11 91 20 143q-71 0 -102 -2q-12 -2 -21 8t-12 21.5t-6 27.5q-5 20 5 34t32 17q9 1 51.5 4.5t75.5 4.5q40 177 82 307l2 16q-2 -1 -7.5 -2t-7.5 -2l-143 -82
q-2 -2 -14 -8q-4 12 -2 16q42 70 61 95l-41 -25q-15 -10 -16 -10q-9 5 -9 16q0 5 5 45q3 7 10.5 34.5t15.5 39.5q124 169 299 233q4 0 29 15q30 20 61 26q188 37 338 -41q3 0 35.5 -22t75 -56t63.5 -59zM975 879q2 90 -16.5 157t-75.5 119h-11q51 -71 67.5 -156.5
t14.5 -195.5q3 9 9 24t9 27t3 25zM664 518q109 157 116 293q-3 16 -7 44.5t-8 52t-9 44.5q-26 106 -105.5 157t-181.5 26q-16 -4 -20 -17q-8 -26 -31.5 -92.5t-32.5 -101.5q-34 -136 -41 -172q119 0 170 -9q23 -6 33 -17t10 -32q-2 -30 -12 -42t-33 -11q-66 2 -160 -6h-24
q-12 -99 -29 -354q-1 -13 4 -60q37 7 64 21q88 43 159 111.5t138 164.5zM238 389l2 129q-7 -20 -11.5 -40.5t-8.5 -45t-6 -40t-5 -46t-4 -41.5q-2 -16 10 -45q1 -3 11 -1t10 5q0 24 -3.5 70t-3.5 55h9z" />
    <glyph glyph-name="ntilde" unicode="&#xf1;" horiz-adv-x="1245" 
d="M618 1606q-16 -26 -28 10q-18 45 -4 65q112 150 217 105q29 -14 37 -35q12 -37 32 -40t39 13q41 18 62 45q21 26 31 -16q13 -49 -5 -67q-38 -37 -73.5 -55t-81.5 -17q-58 0 -99 69q-11 20 -34 9q-57 -31 -93 -86zM55 -211q-19 -12 -44.5 24t-20.5 66q101 564 141 754
q15 66 36.5 145.5t36.5 129.5t45 149t40 133q23 64 18 113q-1 10 10 32t11 33q0 7 2 12.5t3 9t5.5 5.5t6 3t8 0.5t8 -0.5t9.5 -1.5t9 -1.5t2 5t3 10.5t5 6.5q36 4 60 4q-3 -19 0 -41q1 -10 1.5 -42.5t2.5 -51.5q2 -15 5 -42.5t6 -50t7 -42.5q11 -100 29 -170
q21 -91 125 -473q5 -13 10 -19l14 3l4 22q112 458 142 578q4 15 17 41.5t17 37.5q17 58 248 467q3 4 19 15l-80 -160q-8 -23 -10 -41l45 76q-4 -9 -13 -36t-16 -42q0 -3 6 -4q8 14 25 48.5t28 53.5q6 10 16 20t23.5 21.5t20.5 18.5l6 6q8 30 19.5 34t33.5 -24q2 2 5.5 4
t5.5 3.5t3 4t0 6.5q8 -2 72 -24q-11 0 -16 -7t-4.5 -16.5t-2 -20t-8.5 -15.5q-5 -4 0 -27l5 -23q-4 -16 -14 -45.5t-13 -40.5h-2l-2 2l-64 -112l-73 -180l-15 -39q-5 -20 -22 -75t-23 -85q-26 -180 -28 -252q-6 -187 6 -377q3 -55 19.5 -157t19.5 -128q2 -20 -17 -47
q-1 -2 -6 0t-14 6t-13 5q-2 -4 -0.5 -12.5t2 -14t-4.5 -9t-19 2.5q-6 -6 -6 -14q-14 -19 -42.5 -61.5t-45.5 -63.5q-5 -5 -16 -7.5t-19 0.5q-8 4 -27 12.5t-29.5 13.5t-24.5 14.5t-24 19.5q-11 10 -18.5 24.5t-17 41t-11.5 32.5q-95 259 -125 350q-93 287 -163 512l-27 101
q-1 3 -5 8t-5 6l-6 -14q-120 -485 -162 -672q-13 -57 -38 -188t-42 -201q-7 -38 -68 -76zM641 561q-12 12 -12 14q-59 182 -90 293q-11 42 -20 90t-18.5 105.5t-15.5 89.5q-2 15 -12 92t-14 119q0 1 6 31q1 -3 7 -14t7 -17q5 -34 21 -140.5t26 -164.5q14 -65 46 -197.5
t46 -197.5l21 -86zM295 807q0 3 2.5 9t3.5 7l12 45l31 121l-10 27q-8 -8 -8 -12l-33 -181q-1 -2 0.5 -8.5t1.5 -7.5z" />
    <glyph glyph-name="ograve" unicode="&#xf2;" horiz-adv-x="974" 
d="M705 1575q-14 -4 -26 2.5t-17 17.5q-55 54 -96.5 80.5t-121.5 65.5q-36 14 -116 26q-16 3 -24 5t-18 9.5t-12 20.5q-4 28 33 53q4 3 15.5 11.5t15.5 11t16.5 9.5t18.5 6.5t22 2.5t27 -2q8 -3 37 -10t50 -18.5t38 -34.5q6 -13 35 -27.5t41 -29.5q49 -37 65 -56.5t31 -54.5
q1 -7 10.5 -23.5t7.5 -27.5q-2 -24 -32 -37zM406 -131q-17 -2 -25 -1.5t-26 3.5t-29 4q-15 -1 -29.5 1.5t-25 5t-24 10.5t-20 12t-20 16.5t-17 16.5t-18 19t-16.5 17q-43 45 -70 98.5t-39 114.5t-15 113.5t-1 122.5q3 450 241 893q5 10 16.5 35t18 38t18 32.5t23.5 33.5
q17 23 27.5 35t33.5 23t50 8q155 -15 258 -121q87 -87 125.5 -198t48.5 -253q4 -69 -1.5 -199.5t-4.5 -181.5q0 -53 -10.5 -116t-17.5 -93.5t-31.5 -112.5t-26.5 -89q-3 -8 -10.5 -17.5t-16.5 -18.5l-16.5 -16.5t-14.5 -14t-8 -7.5q35 47 49 74q24 76 52 209q2 5 -3 14
q-4 -4 -4 -12q-12 -30 -33 -91t-32 -90q-21 -15 -41 -20q-6 2 -10 24l-33 -36h33q6 -4 6 -23q17 17 20 21q19 23 27 30l16 11q0 -11 -4 -19q-12 -16 -35.5 -50.5t-42.5 -60t-39 -45.5q-118 -125 -253 -149zM317 113q3 -1 30 1.5t59.5 10.5t42.5 18q49 49 81 140
q18 47 31.5 101t21.5 94t15 105.5t9.5 96t7 106.5t6.5 99q5 81 -32 192t-75 123v-7.5t1.5 -4.5t2 -3t5 -3.5t7.5 -5.5q-18 -9 -28 -15q-10 -7 -19 -20q-104 -222 -125 -279q-10 -27 -20 -60.5t-16 -58t-15 -63.5t-14 -59q-2 -7 -7 -20.5t-7 -20.5l-7 45v12q-3 -3 -6 -12
q0 -97 -8 -273q0 -1 -1 -5q-2 -11 -7 1q0 7 -6 191q-4 76 -2 116l-2 7l-23 -21v35q0 4 3 33t6 55.5t5 38.5l7 57q-2 -7 -8 -25t-7 -28q-19 -119 -26.5 -199t0 -186t39.5 -193q0 -3 -3 -6q45 -79 84 -110zM868 801q0 3 2 10.5t2 9.5q11 124 -30 264q16 -139 22 -268
q0 -3 2 -8t2 -8zM178 885q4 4 12 24t19.5 53.5t15.5 43.5v10q-4 -4 -4 -6q-30 -70 -33 -86zM825 575q14 7 25 68v51l-12 -53q-9 -54 -13 -66zM227 352q-3 2 -5.5 5t-3.5 7t-1.5 6.5t-1 9.5t-0.5 11q-5 34 2 174l10 72v-285zM766 346q2 2 6 10q25 45 25 107q0 7 -3 9
q-2 -1 -3 -3q-5 -18 -13.5 -55t-13.5 -56q0 -10 2 -12zM709 211q15 0 20 14q2 8 9.5 30.5t11.5 35.5l10 26l-4 -2l-15 -34q-4 -7 -16 -25.5t-18 -28.5q-3 -6 2 -16z" />
    <glyph glyph-name="oacute" unicode="&#xf3;" horiz-adv-x="974" 
d="M369 1554q-33 14 -35 37q-1 11 7.5 27t10.5 24q15 33 32 53t65 56q12 16 41 31t36 30q17 22 38.5 33.5t49 18.5t35.5 10q11 5 27.5 2t22.5 -2.5t19 -6.5t16.5 -9.5t15.5 -11t16 -11.5q37 -28 33 -53q-3 -13 -12.5 -20.5t-17.5 -9.5t-24 -5q-75 -12 -118 -27
q-56 -28 -81 -41.5t-61 -40t-75 -63.5q-3 -11 -15.5 -18t-25.5 -3zM406 -131q-17 -2 -25 -1.5t-26 3.5t-29 4q-15 -1 -29.5 1.5t-25 5t-24 10.5t-20 12t-20 16.5t-17 16.5t-18 19t-16.5 17q-43 45 -70 98.5t-39 114.5t-15 113.5t-1 122.5q3 450 241 893q5 10 16.5 35t18 38
t18 32.5t23.5 33.5q17 23 27.5 35t33.5 23t50 8q155 -15 258 -121q87 -87 125.5 -198t48.5 -253q4 -69 -1.5 -199.5t-4.5 -181.5q0 -53 -10.5 -116t-17.5 -93.5t-31.5 -112.5t-26.5 -89q-3 -8 -10.5 -17.5t-16.5 -18.5l-16.5 -16.5t-14.5 -14t-8 -7.5q35 47 49 74
q24 76 52 209q2 5 -3 14q-4 -4 -4 -12q-12 -30 -33 -91t-32 -90q-21 -15 -41 -20q-6 2 -10 24l-33 -36h33q6 -4 6 -23q17 17 20 21q19 23 27 30l16 11q0 -11 -4 -19q-12 -16 -35.5 -50.5t-42.5 -60t-39 -45.5q-118 -125 -253 -149zM317 113q3 -1 30 1.5t59.5 10.5t42.5 18
q49 49 81 140q18 47 31.5 101t21.5 94t15 105.5t9.5 96t7 106.5t6.5 99q5 81 -32 192t-75 123v-7.5t1.5 -4.5t2 -3t5 -3.5t7.5 -5.5q-18 -9 -28 -15q-10 -7 -19 -20q-104 -222 -125 -279q-10 -27 -20 -60.5t-16 -58t-15 -63.5t-14 -59q-2 -7 -7 -20.5t-7 -20.5l-7 45v12
q-3 -3 -6 -12q0 -97 -8 -273q0 -1 -1 -5q-2 -11 -7 1q0 7 -6 191q-4 76 -2 116l-2 7l-23 -21v35q0 4 3 33t6 55.5t5 38.5l7 57q-2 -7 -8 -25t-7 -28q-19 -119 -26.5 -199t0 -186t39.5 -193q0 -3 -3 -6q45 -79 84 -110zM868 801q0 3 2 10.5t2 9.5q11 124 -30 264
q16 -139 22 -268q0 -3 2 -8t2 -8zM178 885q4 4 12 24t19.5 53.5t15.5 43.5v10q-4 -4 -4 -6q-30 -70 -33 -86zM825 575q14 7 25 68v51l-12 -53q-9 -54 -13 -66zM227 352q-3 2 -5.5 5t-3.5 7t-1.5 6.5t-1 9.5t-0.5 11q-5 34 2 174l10 72v-285zM766 346q2 2 6 10q25 45 25 107
q0 7 -3 9q-2 -1 -3 -3q-5 -18 -13.5 -55t-13.5 -56q0 -10 2 -12zM709 211q15 0 20 14q2 8 9.5 30.5t11.5 35.5l10 26l-4 -2l-15 -34q-4 -7 -16 -25.5t-18 -28.5q-3 -6 2 -16z" />
    <glyph glyph-name="ocircumflex" unicode="&#xf4;" horiz-adv-x="974" 
d="M745 1583q-22 30 -73.5 83t-73.5 83q-25 32 -35 32.5t-41 -28.5q-24 -25 -80.5 -72.5t-81.5 -74.5q-6 -6 -14 -6t-13 3t-14.5 11t-13.5 10q-29 25 -4 53q21 19 59.5 58t59.5 59q8 7 53.5 45t67.5 62q13 15 41 12q24 -5 30 -19q21 -37 73.5 -89.5t68.5 -73.5
q28 -36 63 -86q22 -31 -8 -54q-15 -10 -22.5 -14.5t-20.5 -5t-21 11.5zM406 -131q-17 -2 -25 -1.5t-26 3.5t-29 4q-15 -1 -29.5 1.5t-25 5t-24 10.5t-20 12t-20 16.5t-17 16.5t-18 19t-16.5 17q-43 45 -70 98.5t-39 114.5t-15 113.5t-1 122.5q3 450 241 893q5 10 16.5 35
t18 38t18 32.5t23.5 33.5q17 23 27.5 35t33.5 23t50 8q155 -15 258 -121q87 -87 125.5 -198t48.5 -253q4 -69 -1.5 -199.5t-4.5 -181.5q0 -53 -10.5 -116t-17.5 -93.5t-31.5 -112.5t-26.5 -89q-3 -8 -10.5 -17.5t-16.5 -18.5l-16.5 -16.5t-14.5 -14t-8 -7.5q35 47 49 74
q24 76 52 209q2 5 -3 14q-4 -4 -4 -12q-12 -30 -33 -91t-32 -90q-21 -15 -41 -20q-6 2 -10 24l-33 -36h33q6 -4 6 -23q17 17 20 21q19 23 27 30l16 11q0 -11 -4 -19q-12 -16 -35.5 -50.5t-42.5 -60t-39 -45.5q-118 -125 -253 -149zM317 113q3 -1 30 1.5t59.5 10.5t42.5 18
q49 49 81 140q18 47 31.5 101t21.5 94t15 105.5t9.5 96t7 106.5t6.5 99q5 81 -32 192t-75 123v-7.5t1.5 -4.5t2 -3t5 -3.5t7.5 -5.5q-18 -9 -28 -15q-10 -7 -19 -20q-104 -222 -125 -279q-10 -27 -20 -60.5t-16 -58t-15 -63.5t-14 -59q-2 -7 -7 -20.5t-7 -20.5l-7 45v12
q-3 -3 -6 -12q0 -97 -8 -273q0 -1 -1 -5q-2 -11 -7 1q0 7 -6 191q-4 76 -2 116l-2 7l-23 -21v35q0 4 3 33t6 55.5t5 38.5l7 57q-2 -7 -8 -25t-7 -28q-19 -119 -26.5 -199t0 -186t39.5 -193q0 -3 -3 -6q45 -79 84 -110zM868 801q0 3 2 10.5t2 9.5q11 124 -30 264
q16 -139 22 -268q0 -3 2 -8t2 -8zM178 885q4 4 12 24t19.5 53.5t15.5 43.5v10q-4 -4 -4 -6q-30 -70 -33 -86zM825 575q14 7 25 68v51l-12 -53q-9 -54 -13 -66zM227 352q-3 2 -5.5 5t-3.5 7t-1.5 6.5t-1 9.5t-0.5 11q-5 34 2 174l10 72v-285zM766 346q2 2 6 10q25 45 25 107
q0 7 -3 9q-2 -1 -3 -3q-5 -18 -13.5 -55t-13.5 -56q0 -10 2 -12zM709 211q15 0 20 14q2 8 9.5 30.5t11.5 35.5l10 26l-4 -2l-15 -34q-4 -7 -16 -25.5t-18 -28.5q-3 -6 2 -16z" />
    <glyph glyph-name="otilde" unicode="&#xf5;" horiz-adv-x="974" 
d="M391 1620q-10 -13 -17 -9t-12 19q-18 46 -4 66q54 72 106.5 100.5t110.5 3.5q29 -14 37 -35q12 -37 32.5 -39.5t39.5 13.5q39 17 61 45q21 26 31 -17q13 -50 -4 -67q-38 -37 -74 -55t-82 -17q-56 0 -98 70q-11 20 -35 8q-55 -30 -92 -86zM406 -131q-17 -2 -25 -1.5
t-26 3.5t-29 4q-15 -1 -29.5 1.5t-25 5t-24 10.5t-20 12t-20 16.5t-17 16.5t-18 19t-16.5 17q-43 45 -70 98.5t-39 114.5t-15 113.5t-1 122.5q3 450 241 893q5 10 16.5 35t18 38t18 32.5t23.5 33.5q17 23 27.5 35t33.5 23t50 8q155 -15 258 -121q87 -87 125.5 -198
t48.5 -253q4 -69 -1.5 -199.5t-4.5 -181.5q0 -53 -10.5 -116t-17.5 -93.5t-31.5 -112.5t-26.5 -89q-3 -8 -10.5 -17.5t-16.5 -18.5l-16.5 -16.5t-14.5 -14t-8 -7.5q35 47 49 74q24 76 52 209q2 5 -3 14q-4 -4 -4 -12q-12 -30 -33 -91t-32 -90q-21 -15 -41 -20q-6 2 -10 24
l-33 -36h33q6 -4 6 -23q17 17 20 21q19 23 27 30l16 11q0 -11 -4 -19q-12 -16 -35.5 -50.5t-42.5 -60t-39 -45.5q-118 -125 -253 -149zM317 113q3 -1 30 1.5t59.5 10.5t42.5 18q49 49 81 140q18 47 31.5 101t21.5 94t15 105.5t9.5 96t7 106.5t6.5 99q5 81 -32 192t-75 123
v-7.5t1.5 -4.5t2 -3t5 -3.5t7.5 -5.5q-18 -9 -28 -15q-10 -7 -19 -20q-104 -222 -125 -279q-10 -27 -20 -60.5t-16 -58t-15 -63.5t-14 -59q-2 -7 -7 -20.5t-7 -20.5l-7 45v12q-3 -3 -6 -12q0 -97 -8 -273q0 -1 -1 -5q-2 -11 -7 1q0 7 -6 191q-4 76 -2 116l-2 7l-23 -21v35
q0 4 3 33t6 55.5t5 38.5l7 57q-2 -7 -8 -25t-7 -28q-19 -119 -26.5 -199t0 -186t39.5 -193q0 -3 -3 -6q45 -79 84 -110zM868 801q0 3 2 10.5t2 9.5q11 124 -30 264q16 -139 22 -268q0 -3 2 -8t2 -8zM178 885q4 4 12 24t19.5 53.5t15.5 43.5v10q-4 -4 -4 -6q-30 -70 -33 -86z
M825 575q14 7 25 68v51l-12 -53q-9 -54 -13 -66zM227 352q-3 2 -5.5 5t-3.5 7t-1.5 6.5t-1 9.5t-0.5 11q-5 34 2 174l10 72v-285zM766 346q2 2 6 10q25 45 25 107q0 7 -3 9q-2 -1 -3 -3q-5 -18 -13.5 -55t-13.5 -56q0 -10 2 -12zM709 211q15 0 20 14q2 8 9.5 30.5t11.5 35.5
l10 26l-4 -2l-15 -34q-4 -7 -16 -25.5t-18 -28.5q-3 -6 2 -16z" />
    <glyph glyph-name="odieresis" unicode="&#xf6;" horiz-adv-x="974" 
d="M721 1645q-73 -6 -96 61q-23 87 45 117q15 7 42 14.5t38 11.5q63 -6 86 -59q22 -48 -15 -94q-34 -45 -100 -51zM342 1673q-40 14 -50.5 49.5t15.5 67.5q19 23 53 39t66 16q29 0 53.5 -17t30.5 -42q6 -30 -10.5 -62.5t-46.5 -44.5q-63 -22 -111 -6zM406 -131
q-17 -2 -25 -1.5t-26 3.5t-29 4q-15 -1 -29.5 1.5t-25 5t-24 10.5t-20 12t-20 16.5t-17 16.5t-18 19t-16.5 17q-43 45 -70 98.5t-39 114.5t-15 113.5t-1 122.5q3 450 241 893q5 10 16.5 35t18 38t18 32.5t23.5 33.5q17 23 27.5 35t33.5 23t50 8q155 -15 258 -121
q87 -87 125.5 -198t48.5 -253q4 -69 -1.5 -199.5t-4.5 -181.5q0 -53 -10.5 -116t-17.5 -93.5t-31.5 -112.5t-26.5 -89q-3 -8 -10.5 -17.5t-16.5 -18.5l-16.5 -16.5t-14.5 -14t-8 -7.5q35 47 49 74q24 76 52 209q2 5 -3 14q-4 -4 -4 -12q-12 -30 -33 -91t-32 -90
q-21 -15 -41 -20q-6 2 -10 24l-33 -36h33q6 -4 6 -23q17 17 20 21q19 23 27 30l16 11q0 -11 -4 -19q-12 -16 -35.5 -50.5t-42.5 -60t-39 -45.5q-118 -125 -253 -149zM317 113q3 -1 30 1.5t59.5 10.5t42.5 18q49 49 81 140q18 47 31.5 101t21.5 94t15 105.5t9.5 96t7 106.5
t6.5 99q5 81 -32 192t-75 123v-7.5t1.5 -4.5t2 -3t5 -3.5t7.5 -5.5q-18 -9 -28 -15q-10 -7 -19 -20q-104 -222 -125 -279q-10 -27 -20 -60.5t-16 -58t-15 -63.5t-14 -59q-2 -7 -7 -20.5t-7 -20.5l-7 45v12q-3 -3 -6 -12q0 -97 -8 -273q0 -1 -1 -5q-2 -11 -7 1q0 7 -6 191
q-4 76 -2 116l-2 7l-23 -21v35q0 4 3 33t6 55.5t5 38.5l7 57q-2 -7 -8 -25t-7 -28q-19 -119 -26.5 -199t0 -186t39.5 -193q0 -3 -3 -6q45 -79 84 -110zM868 801q0 3 2 10.5t2 9.5q11 124 -30 264q16 -139 22 -268q0 -3 2 -8t2 -8zM178 885q4 4 12 24t19.5 53.5t15.5 43.5v10
q-4 -4 -4 -6q-30 -70 -33 -86zM825 575q14 7 25 68v51l-12 -53q-9 -54 -13 -66zM227 352q-3 2 -5.5 5t-3.5 7t-1.5 6.5t-1 9.5t-0.5 11q-5 34 2 174l10 72v-285zM766 346q2 2 6 10q25 45 25 107q0 7 -3 9q-2 -1 -3 -3q-5 -18 -13.5 -55t-13.5 -56q0 -10 2 -12zM709 211
q15 0 20 14q2 8 9.5 30.5t11.5 35.5l10 26l-4 -2l-15 -34q-4 -7 -16 -25.5t-18 -28.5q-3 -6 2 -16z" />
    <glyph glyph-name="oslash" unicode="&#xf8;" horiz-adv-x="1257" 
d="M1210 1171q37 -113 7 -303q-65 -408 -285 -710q-126 -167 -227 -240q-122 -88 -248 -84t-226 92q-47 -68 -90 -135q-8 -11 -26 -14q-7 14 -13 30q-15 -2 -26 9l-10 -2v8q0 2 -7 6h-6q1 1 -2 11.5t-6 15.5l-6 4q4 4 4 6l2 4l-10 2l-6 10q7 10 10 23q32 54 92 145
q-2 5 -7 14.5t-7 14.5q-138 286 -56 643q85 351 295 592q43 50 87 76t102 16q6 -1 13.5 2.5t20.5 12.5t15 10q39 23 73.5 38t73 23.5t78.5 5t80 -19.5q3 -1 13.5 -1.5t13.5 -2.5q59 -46 84 -70q60 83 116 147l13 13q2 1 4.5 -1t8 -7.5t9.5 -8.5q22 -15 41 -12v-6l23 -19
l-6 -18q-1 -5 -8 -12t-7 -11l-2 -16q-40 -67 -98 -152q58 -78 80 -161l8 -15q1 -13 0.5 -28t1.5 -28t8 -13v63q1 9 -7.5 38t-8.5 36l8 6zM629 1094q-17 -49 -60.5 -135t-58.5 -121q-11 -25 -20.5 -55.5t-19 -68t-15.5 -57.5l-4 -26q-11 -58 -13 -99q125 200 129 207
q82 119 134 197t100.5 154t72.5 112l29 43q-29 36 -72 68q-92 74 -200 24q-5 -2 -10 -8t-5 -10q1 -5 8 -27.5t7 -34.5t3.5 -51.5t2.5 -64.5t-8 -47zM942 502q80 201 66 481q-3 63 -25 121q-33 -56 -92 -150q-43 -66 -199 -313t-231 -365l6 -16q35 -101 114.5 -127.5
t153.5 39.5q123 113 207 330zM481 868v-34l11 32q24 72 51 160l-4 12l-11 -12q-6 -22 -23 -75.5t-24 -82.5zM461 903q-3 -10 -10 -31q-15 -47 -23 -72t-20 -68t-17.5 -73t-10.5 -68t-4 -74t7 -71q14 24 20 31q-7 150 33 273q6 22 11 47t10 55.5t8 48.5zM197 606
q-21 -110 -17 -157q-10 -90 41 -213h8q-45 136 -39 266l5 24l8 80h-6zM154 352q-12 -3 -7 -39q0 -42 46 -129l6 2q-42 86 -45 166z" />
    <glyph glyph-name="ugrave" unicode="&#xf9;" horiz-adv-x="1144" 
d="M791 1417q-14 -4 -26 2.5t-17 18.5q-55 53 -96 79t-122 66q-41 15 -116 27q-16 3 -24 5t-18 9.5t-12 20.5q-4 28 33 53q4 3 15.5 11.5t15.5 11t16.5 9.5t18.5 6.5t22 2.5t27 -2q7 -3 36.5 -10t50.5 -19t38 -35q6 -13 35 -27.5t41 -29.5q49 -37 65 -56.5t31 -54.5
q1 -7 10.5 -23.5t7.5 -27.5q-2 -24 -32 -37zM451 -80q-150 19 -235 102t-120 242l-28 150q-7 50 -15 125q-12 350 68 667q31 111 147 123q46 3 84 -18.5t84 -65.5q-9 -18 -24 -102q-10 -69 -68 -420q-34 -202 10 -358q19 -67 74 -136q32 -43 80 -38.5t82 53.5
q106 170 147 278q79 194 123 379q16 74 35.5 219.5t22.5 163.5q0 34 10 51q8 13 35 21q5 0 30 -35q8 24 33 70q39 -22 53 -31q3 -2 10.5 -2t10.5 -2q14 -9 14 -17q-1 -21 -3 -60t-4 -71.5t-5 -60.5q-3 -23 -13.5 -98t-19 -124t-20.5 -96q-32 -127 -101 -294
q-73 -189 -141 -310q-24 -38 -54.5 -78.5t-70 -88t-59.5 -74.5q-5 -2 -9 -11q5 0 13 4l61 54q8 4 14 10q-3 -9 -8 -14q-93 -125 -243 -107zM1073 915q21 102 21 105q0 14 8 72q4 -32 0 -66q0 -21 -12 -65t-17 -46zM692 254q1 1 12.5 24l22 44t27.5 57.5t32 73.5
q1 1 38.5 107t64.5 181q1 2 1 8t1 9q-1 -1 -8 -15q-69 -193 -84 -231q-13 -30 -37.5 -90t-40.5 -98zM897 481l4 11l35 96q0 1 -1 3t-1 3q-4 -4 -4 -6l-35 -105z" />
    <glyph glyph-name="uacute" unicode="&#xfa;" horiz-adv-x="1144" 
d="M455 1397q-33 14 -35 37q-1 11 7.5 27t10.5 24q15 32 32 52t65 56q12 16 41 31.5t36 30.5q17 22 38.5 33.5t49 18t35.5 9.5q11 5 27.5 2t22.5 -2.5t19 -6.5t16.5 -9.5t15.5 -11t16 -11.5q37 -28 33 -53q-3 -13 -12.5 -20.5t-17.5 -9.5t-24 -5q-80 -12 -118 -26
q-78 -39 -119 -65.5t-98 -80.5q-3 -11 -15.5 -17.5t-25.5 -2.5zM451 -80q-150 19 -235 102t-120 242l-28 150q-7 50 -15 125q-12 350 68 667q31 111 147 123q46 3 84 -18.5t84 -65.5q-9 -18 -24 -102q-10 -69 -68 -420q-34 -202 10 -358q19 -67 74 -136q32 -43 80 -38.5
t82 53.5q106 170 147 278q79 194 123 379q16 74 35.5 219.5t22.5 163.5q0 34 10 51q8 13 35 21q5 0 30 -35q8 24 33 70q39 -22 53 -31q3 -2 10.5 -2t10.5 -2q14 -9 14 -17q-1 -21 -3 -60t-4 -71.5t-5 -60.5q-3 -23 -13.5 -98t-19 -124t-20.5 -96q-32 -127 -101 -294
q-73 -189 -141 -310q-24 -38 -54.5 -78.5t-70 -88t-59.5 -74.5q-5 -2 -9 -11q5 0 13 4l61 54q8 4 14 10q-3 -9 -8 -14q-93 -125 -243 -107zM1073 915q21 102 21 105q0 14 8 72q4 -32 0 -66q0 -21 -12 -65t-17 -46zM692 254q1 1 12.5 24l22 44t27.5 57.5t32 73.5
q1 1 38.5 107t64.5 181q1 2 1 8t1 9q-1 -1 -8 -15q-69 -193 -84 -231q-13 -30 -37.5 -90t-40.5 -98zM897 481l4 11l35 96q0 1 -1 3t-1 3q-4 -4 -4 -6l-35 -105z" />
    <glyph glyph-name="ucircumflex" unicode="&#xfb;" horiz-adv-x="1144" 
d="M831 1425q-22 30 -73.5 83t-73.5 83q-25 32 -35 32.5t-41 -28.5q-24 -25 -80.5 -72.5t-81.5 -74.5q-6 -6 -14 -6t-13 3t-14.5 11t-13.5 10q-29 26 -4 54q21 19 60 57.5t59 58.5q8 7 53.5 45t67.5 62q13 15 41 12q24 -5 30 -18q21 -37 73.5 -90t68.5 -74q28 -36 63 -86
q21 -30 -8 -53q-15 -11 -22.5 -15t-20.5 -5t-21 11zM451 -80q-150 19 -235 102t-120 242l-28 150q-7 50 -15 125q-12 350 68 667q31 111 147 123q46 3 84 -18.5t84 -65.5q-9 -18 -24 -102q-10 -69 -68 -420q-34 -202 10 -358q19 -67 74 -136q32 -43 80 -38.5t82 53.5
q106 170 147 278q79 194 123 379q16 74 35.5 219.5t22.5 163.5q0 34 10 51q8 13 35 21q5 0 30 -35q8 24 33 70q39 -22 53 -31q3 -2 10.5 -2t10.5 -2q14 -9 14 -17q-1 -21 -3 -60t-4 -71.5t-5 -60.5q-3 -23 -13.5 -98t-19 -124t-20.5 -96q-32 -127 -101 -294
q-73 -189 -141 -310q-24 -38 -54.5 -78.5t-70 -88t-59.5 -74.5q-5 -2 -9 -11q5 0 13 4l61 54q8 4 14 10q-3 -9 -8 -14q-93 -125 -243 -107zM1073 915q21 102 21 105q0 14 8 72q4 -32 0 -66q0 -21 -12 -65t-17 -46zM692 254q1 1 12.5 24l22 44t27.5 57.5t32 73.5
q1 1 38.5 107t64.5 181q1 2 1 8t1 9q-1 -1 -8 -15q-69 -193 -84 -231q-13 -30 -37.5 -90t-40.5 -98zM897 481l4 11l35 96q0 1 -1 3t-1 3q-4 -4 -4 -6l-35 -105z" />
    <glyph glyph-name="udieresis" unicode="&#xfc;" horiz-adv-x="1144" 
d="M807 1487q-73 -6 -96 61q-23 87 45 117q15 7 42.5 15t37.5 12q63 -6 86 -60q22 -48 -15 -94q-34 -45 -100 -51zM428 1516q-40 14 -50.5 49t15.5 67q19 24 53 40t66 16q29 0 53.5 -17.5t30.5 -42.5q6 -30 -10.5 -62t-46.5 -44q-63 -22 -111 -6zM451 -80q-150 19 -235 102
t-120 242l-28 150q-7 50 -15 125q-12 350 68 667q31 111 147 123q46 3 84 -18.5t84 -65.5q-9 -18 -24 -102q-10 -69 -68 -420q-34 -202 10 -358q19 -67 74 -136q32 -43 80 -38.5t82 53.5q106 170 147 278q79 194 123 379q16 74 35.5 219.5t22.5 163.5q0 34 10 51q8 13 35 21
q5 0 30 -35q8 24 33 70q39 -22 53 -31q3 -2 10.5 -2t10.5 -2q14 -9 14 -17q-1 -21 -3 -60t-4 -71.5t-5 -60.5q-3 -23 -13.5 -98t-19 -124t-20.5 -96q-32 -127 -101 -294q-73 -189 -141 -310q-24 -38 -54.5 -78.5t-70 -88t-59.5 -74.5q-5 -2 -9 -11q5 0 13 4l61 54q8 4 14 10
q-3 -9 -8 -14q-93 -125 -243 -107zM1073 915q21 102 21 105q0 14 8 72q4 -32 0 -66q0 -21 -12 -65t-17 -46zM692 254q1 1 12.5 24l22 44t27.5 57.5t32 73.5q1 1 38.5 107t64.5 181q1 2 1 8t1 9q-1 -1 -8 -15q-69 -193 -84 -231q-13 -30 -37.5 -90t-40.5 -98zM897 481l4 11
l35 96q0 1 -1 3t-1 3q-4 -4 -4 -6l-35 -105z" />
    </font>
</defs>
</svg>
